  0
SECTION
  2
HEADER
  9
$ACADVER
  1
AC1015
  9
$ACADMAINTVER
 70
    20
  9
$DWGCODEPAGE
  3
ANSI_932
  9
$INSBASE
 10
0.0
 20
0.0
 30
0.0
  9
$EXTMIN
 10
-0.1702504555714768
 20
-0.1204332752135997
 30
-0.0000000349181948
  9
$EXTMAX
 10
2789.681437458783
 20
1973.389564148916
 30
0.0000000814935746
  9
$LIMMIN
 10
0.0
 20
0.0
  9
$LIMMAX
 10
297.0
 20
209.0
  9
$ORTHOMODE
 70
     1
  9
$REGENMODE
 70
     1
  9
$FILLMODE
 70
     1
  9
$QTEXTMODE
 70
     0
  9
$MIRRTEXT
 70
     1
  9
$LTSCALE
 40
1.0
  9
$ATTMODE
 70
     1
  9
$TEXTSIZE
 40
2.5
  9
$TRACEWID
 40
1.0
  9
$TEXTSTYLE
  7
Standard
  9
$CLAYER
  8
嵩上断面
  9
$CELTYPE
  6
ByLayer
  9
$CECOLOR
 62
   256
  9
$CELTSCALE
 40
3.0
  9
$DISPSILH
 70
     0
  9
$DIMSCALE
 40
10.0
  9
$DIMASZ
 40
1.5
  9
$DIMEXO
 40
2.0
  9
$DIMDLI
 40
3.75
  9
$DIMRND
 40
0.0
  9
$DIMDLE
 40
0.0
  9
$DIMEXE
 40
1.5
  9
$DIMTP
 40
0.0
  9
$DIMTM
 40
0.0
  9
$DIMTXT
 40
3.0
  9
$DIMCEN
 40
2.5
  9
$DIMTSZ
 40
0.0
  9
$DIMTOL
 70
     0
  9
$DIMLIM
 70
     0
  9
$DIMTIH
 70
     0
  9
$DIMTOH
 70
     0
  9
$DIMSE1
 70
     0
  9
$DIMSE2
 70
     0
  9
$DIMTAD
 70
     1
  9
$DIMZIN
 70
     8
  9
$DIMBLK
  1
Open30
  9
$DIMASO
 70
     1
  9
$DIMSHO
 70
     1
  9
$DIMPOST
  1

  9
$DIMAPOST
  1

  9
$DIMALT
 70
     0
  9
$DIMALTD
 70
     3
  9
$DIMALTF
 40
0.03937007874016
  9
$DIMLFAC
 40
1.0
  9
$DIMTOFL
 70
     1
  9
$DIMTVP
 40
0.0
  9
$DIMTIX
 70
     0
  9
$DIMSOXD
 70
     0
  9
$DIMSAH
 70
     0
  9
$DIMBLK1
  1

  9
$DIMBLK2
  1

  9
$DIMSTYLE
  2
ISO-25
  9
$DIMCLRD
 70
     0
  9
$DIMCLRE
 70
     0
  9
$DIMCLRT
 70
     0
  9
$DIMTFAC
 40
1.0
  9
$DIMGAP
 40
0.5
  9
$DIMJUST
 70
     0
  9
$DIMSD1
 70
     0
  9
$DIMSD2
 70
     0
  9
$DIMTOLJ
 70
     0
  9
$DIMTZIN
 70
     8
  9
$DIMALTZ
 70
     0
  9
$DIMALTTZ
 70
     0
  9
$DIMUPT
 70
     0
  9
$DIMDEC
 70
     2
  9
$DIMTDEC
 70
     2
  9
$DIMALTU
 70
     2
  9
$DIMALTTD
 70
     3
  9
$DIMTXSTY
  7
Standard
  9
$DIMAUNIT
 70
     0
  9
$DIMADEC
 70
     0
  9
$DIMALTRND
 40
0.0
  9
$DIMAZIN
 70
     0
  9
$DIMDSEP
 70
    46
  9
$DIMATFIT
 70
     0
  9
$DIMFRAC
 70
     0
  9
$DIMLDRBLK
  1
Open30
  9
$DIMLUNIT
 70
     2
  9
$DIMLWD
 70
    -2
  9
$DIMLWE
 70
    -2
  9
$DIMTMOVE
 70
     0
  9
$LUNITS
 70
     2
  9
$LUPREC
 70
     4
  9
$SKETCHINC
 40
1.0
  9
$FILLETRAD
 40
9.9
  9
$AUNITS
 70
     0
  9
$AUPREC
 70
     0
  9
$MENU
  1
.
  9
$ELEVATION
 40
0.0
  9
$PELEVATION
 40
0.0
  9
$THICKNESS
 40
0.0
  9
$LIMCHECK
 70
     0
  9
$CHAMFERA
 40
10.0
  9
$CHAMFERB
 40
10.0
  9
$CHAMFERC
 40
20.0
  9
$CHAMFERD
 40
0.0
  9
$SKPOLY
 70
     0
  9
$TDCREATE
 40
2453510.558637211
  9
$TDUCREATE
 40
2453510.183637211
  9
$TDUPDATE
 40
2457541.481165324
  9
$TDUUPDATE
 40
2457541.106165324
  9
$TDINDWG
 40
0.0694648148
  9
$TDUSRTIMER
 40
0.0694648148
  9
$USRTIMER
 70
     1
  9
$ANGBASE
 50
0.0
  9
$ANGDIR
 70
     0
  9
$PDMODE
 70
     0
  9
$PDSIZE
 40
0.0
  9
$PLINEWID
 40
0.0
  9
$SPLFRAME
 70
     0
  9
$SPLINETYPE
 70
     6
  9
$SPLINESEGS
 70
     8
  9
$HANDSEED
  5
188C
  9
$SURFTAB1
 70
     6
  9
$SURFTAB2
 70
     6
  9
$SURFTYPE
 70
     6
  9
$SURFU
 70
     6
  9
$SURFV
 70
     6
  9
$UCSBASE
  2

  9
$UCSNAME
  2

  9
$UCSORG
 10
0.0
 20
0.0
 30
0.0
  9
$UCSXDIR
 10
1.0
 20
0.0
 30
0.0
  9
$UCSYDIR
 10
0.0
 20
1.0
 30
0.0
  9
$UCSORTHOREF
  2

  9
$UCSORTHOVIEW
 70
     0
  9
$UCSORGTOP
 10
0.0
 20
0.0
 30
0.0
  9
$UCSORGBOTTOM
 10
0.0
 20
0.0
 30
0.0
  9
$UCSORGLEFT
 10
0.0
 20
0.0
 30
0.0
  9
$UCSORGRIGHT
 10
0.0
 20
0.0
 30
0.0
  9
$UCSORGFRONT
 10
0.0
 20
0.0
 30
0.0
  9
$UCSORGBACK
 10
0.0
 20
0.0
 30
0.0
  9
$PUCSBASE
  2

  9
$PUCSNAME
  2

  9
$PUCSORG
 10
0.0
 20
0.0
 30
0.0
  9
$PUCSXDIR
 10
1.0
 20
0.0
 30
0.0
  9
$PUCSYDIR
 10
0.0
 20
1.0
 30
0.0
  9
$PUCSORTHOREF
  2

  9
$PUCSORTHOVIEW
 70
     0
  9
$PUCSORGTOP
 10
0.0
 20
0.0
 30
0.0
  9
$PUCSORGBOTTOM
 10
0.0
 20
0.0
 30
0.0
  9
$PUCSORGLEFT
 10
0.0
 20
0.0
 30
0.0
  9
$PUCSORGRIGHT
 10
0.0
 20
0.0
 30
0.0
  9
$PUCSORGFRONT
 10
0.0
 20
0.0
 30
0.0
  9
$PUCSORGBACK
 10
0.0
 20
0.0
 30
0.0
  9
$USERI1
 70
     0
  9
$USERI2
 70
     0
  9
$USERI3
 70
     0
  9
$USERI4
 70
     0
  9
$USERI5
 70
     0
  9
$USERR1
 40
0.0
  9
$USERR2
 40
0.0
  9
$USERR3
 40
0.0
  9
$USERR4
 40
0.0
  9
$USERR5
 40
0.0
  9
$WORLDVIEW
 70
     1
  9
$SHADEDGE
 70
     3
  9
$SHADEDIF
 70
    70
  9
$TILEMODE
 70
     1
  9
$MAXACTVP
 70
    48
  9
$PINSBASE
 10
0.0
 20
0.0
 30
0.0
  9
$PLIMCHECK
 70
     0
  9
$PEXTMIN
 10
0.0
 20
0.0
 30
0.0
  9
$PEXTMAX
 10
0.0
 20
0.0
 30
0.0
  9
$PLIMMIN
 10
0.0
 20
0.0
  9
$PLIMMAX
 10
12.0
 20
9.0
  9
$UNITMODE
 70
     0
  9
$VISRETAIN
 70
     1
  9
$PLINEGEN
 70
     0
  9
$PSLTSCALE
 70
     1
  9
$TREEDEPTH
 70
  3020
  9
$CMLSTYLE
  2
Standard
  9
$CMLJUST
 70
     0
  9
$CMLSCALE
 40
20.0
  9
$PROXYGRAPHICS
 70
     1
  9
$MEASUREMENT
 70
     1
  9
$CELWEIGHT
370
    -1
  9
$ENDCAPS
280
     0
  9
$JOINSTYLE
280
     0
  9
$LWDISPLAY
290
     0
  9
$INSUNITS
 70
     4
  9
$HYPERLINKBASE
  1

  9
$STYLESHEET
  1
monochrome.ctb
  9
$XEDIT
290
     1
  9
$CEPSNTYPE
380
     0
  9
$PSTYLEMODE
290
     1
  9
$FINGERPRINTGUID
  2

  9
$VERSIONGUID
  2
{B120591E-F9FE-42F5-8C7E-31E479440124}
  9
$EXTNAMES
290
     1
  9
$PSVPSCALE
 40
0.0
  9
$OLESTARTUP
290
     0
  0
ENDSEC
  0
SECTION
  2
CLASSES
  0
CLASS
  1
ACDBDICTIONARYWDFLT
  2
AcDbDictionaryWithDefault
  3
ObjectDBX Classes
 90
        0
280
     0
281
     0
  0
CLASS
  1
ACDBPLACEHOLDER
  2
AcDbPlaceHolder
  3
ObjectDBX Classes
 90
        0
280
     0
281
     0
  0
CLASS
  1
LAYOUT
  2
AcDbLayout
  3
ObjectDBX Classes
 90
        0
280
     0
281
     0
  0
CLASS
  1
DICTIONARYVAR
  2
AcDbDictionaryVar
  3
ObjectDBX Classes
 90
        0
280
     0
281
     0
  0
CLASS
  1
MATERIAL
  2
AcDbMaterial
  3
ObjectDBX Classes
 90
     1153
280
     0
281
     0
  0
CLASS
  1
VISUALSTYLE
  2
AcDbVisualStyle
  3
ObjectDBX Classes
 90
     4095
280
     0
281
     0
  0
CLASS
  1
TABLESTYLE
  2
AcDbTableStyle
  3
ObjectDBX Classes
 90
     4095
280
     0
281
     0
  0
CLASS
  1
SCALE
  2
AcDbScale
  3
ObjectDBX Classes
 90
     1153
280
     0
281
     0
  0
CLASS
  1
MLEADERSTYLE
  2
AcDbMLeaderStyle
  3
ACDB_MLEADERSTYLE_CLASS
 90
     4095
280
     0
281
     0
  0
CLASS
  1
ACDBSECTIONVIEWSTYLE
  2
AcDbSectionViewStyle
  3
ObjectDBX Classes
 90
     1025
280
     0
281
     0
  0
CLASS
  1
ACDBDETAILVIEWSTYLE
  2
AcDbDetailViewStyle
  3
ObjectDBX Classes
 90
     1025
280
     0
281
     0
  0
CLASS
  1
CELLSTYLEMAP
  2
AcDbCellStyleMap
  3
ObjectDBX Classes
 90
     1152
280
     0
281
     0
  0
CLASS
  1
SORTENTSTABLE
  2
AcDbSortentsTable
  3
ObjectDBX Classes
 90
        0
280
     0
281
     0
  0
CLASS
  1
ACARRAYJIGENTITY
  2
AcArrayJigEntity
  3
ACAD_ARRAY
 90
      129
280
     0
281
     1
  0
CLASS
  1
ACDBASSOCNETWORK
  2
AcDbAssocNetwork
  3
ObjectDBX Classes
 90
     1025
280
     0
281
     0
  0
CLASS
  1
ACDBASSOCACTION
  2
AcDbAssocAction
  3
ObjectDBX Classes
 90
     1025
280
     0
281
     0
  0
CLASS
  1
ACDBASSOCARRAYACTIONBODY
  2
AcDbAssocArrayActionBody
  3
ObjectDBX Classes
 90
     1025
280
     0
281
     0
  0
CLASS
  1
ACDBASSOCVERTEXACTIONPARAM
  2
AcDbAssocVertexActionParam
  3
ObjectDBX Classes
 90
     1025
280
     0
281
     0
  0
CLASS
  1
ACDBASSOCDEPENDENCY
  2
AcDbAssocDependency
  3
ObjectDBX Classes
 90
     1025
280
     0
281
     0
  0
CLASS
  1
ACDBASSOCARRAYRECTANGULARPARAMETERS
  2
AcDbAssocArrayRectangularParameters
  3
ObjectDBX Classes
 90
    33793
280
     0
281
     0
  0
ENDSEC
  0
SECTION
  2
TABLES
  0
TABLE
  2
VPORT
  5
AC3
102
{ACAD_XDICTIONARY
360
1427
102
}
330
0
100
AcDbSymbolTable
 70
     1
  0
VPORT
  5
13B5
330
AC3
100
AcDbSymbolTableRecord
100
AcDbViewportTableRecord
  2
*Active
 70
     0
 10
0.0
 20
0.0
 11
1.0
 21
1.0
 12
1394.755593501606
 22
986.6345654368513
 13
0.0
 23
0.0
 14
10.0
 24
10.0
 15
10.0
 25
10.0
 16
0.0
 26
0.0
 36
1.0
 17
0.0
 27
0.0
 37
0.0
 40
1992.48605509167
 41
2.97752808988764
 42
50.0
 43
0.0
 44
0.0
 50
0.0
 51
0.0
 71
     0
 72
   100
 73
     1
 74
     3
 75
     0
 76
     0
 77
     0
 78
     0
281
     0
 65
     1
110
0.0
120
0.0
130
0.0
111
1.0
121
0.0
131
0.0
112
0.0
122
1.0
132
0.0
 79
     0
146
0.0
1001
ACAD_NAV_VCDISPLAY
1070
     3
  0
ENDTAB
  0
TABLE
  2
LTYPE
  5
ABE
330
0
100
AcDbSymbolTable
 70
     7
  0
LTYPE
  5
ABF
330
ABE
100
AcDbSymbolTableRecord
100
AcDbLinetypeTableRecord
  2
ByBlock
 70
     0
  3

 72
    65
 73
     0
 40
0.0
  0
LTYPE
  5
AC0
330
ABE
100
AcDbSymbolTableRecord
100
AcDbLinetypeTableRecord
  2
ByLayer
 70
     0
  3

 72
    65
 73
     0
 40
0.0
  0
LTYPE
  5
8
330
ABE
100
AcDbSymbolTableRecord
100
AcDbLinetypeTableRecord
  2
Continuous
 70
     0
  3
Solid line
 72
    65
 73
     0
 40
0.0
  0
LTYPE
  5
C9
330
ABE
100
AcDbSymbolTableRecord
100
AcDbLinetypeTableRecord
  2
HIDDEN
 70
     0
  3
Hidden __ __ __ __ __ __ __ __ __ __ __ __ __ _
 72
    65
 73
     2
 40
9.524999999999998
 49
6.349999999999999
 74
     0
 49
-3.174999999999999
 74
     0
  0
LTYPE
  5
56D
330
ABE
100
AcDbSymbolTableRecord
100
AcDbLinetypeTableRecord
  2
CENTER
 70
     0
  3
------ - ------ - ----
 72
    65
 73
     4
 40
10.0
 49
6.25
 74
     0
 49
-1.25
 74
     0
 49
1.25
 74
     0
 49
-1.25
 74
     0
  0
ENDTAB
  0
TABLE
  2
LAYER
  5
ABB
102
{ACAD_XDICTIONARY
360
1479
102
}
330
0
100
AcDbSymbolTable
 70
    11
  0
LAYER
  5
64
102
{ACAD_XDICTIONARY
360
140A
102
}
330
ABB
100
AcDbSymbolTableRecord
100
AcDbLayerTableRecord
  2
0
 70
     0
 62
     7
  6
Continuous
370
    -3
390
5
  0
LAYER
  5
6A
102
{ACAD_XDICTIONARY
360
140C
102
}
330
ABB
100
AcDbSymbolTableRecord
100
AcDbLayerTableRecord
  2
本体
 70
     0
 62
     7
  6
Continuous
370
    13
390
5
  0
LAYER
  5
4
102
{ACAD_XDICTIONARY
360
140E
102
}
330
ABB
100
AcDbSymbolTableRecord
100
AcDbLayerTableRecord
  2
寸法線
 70
     0
 62
     2
  6
Continuous
370
     9
390
5
  0
LAYER
  5
67
102
{ACAD_XDICTIONARY
360
1412
102
}
330
ABB
100
AcDbSymbolTableRecord
100
AcDbLayerTableRecord
  2
エンボス
 70
     0
 62
     4
  6
Continuous
370
     5
390
5
  0
LAYER
  5
11
102
{ACAD_XDICTIONARY
360
1414
102
}
330
ABB
100
AcDbSymbolTableRecord
100
AcDbLayerTableRecord
  2
外枠
 70
     0
 62
     7
  6
Continuous
370
    -3
390
5
  0
LAYER
  5
E2
330
ABB
100
AcDbSymbolTableRecord
100
AcDbLayerTableRecord
  2
Defpoints
 70
     0
 62
     7
  6
Continuous
290
     0
370
    -3
390
5
  0
LAYER
  5
1383
102
{ACAD_XDICTIONARY
360
1418
102
}
330
ABB
100
AcDbSymbolTableRecord
100
AcDbLayerTableRecord
  2
嵩上断面
 70
     0
 62
   112
  6
Continuous
370
    13
390
5
  0
LAYER
  5
1384
102
{ACAD_XDICTIONARY
360
141A
102
}
330
ABB
100
AcDbSymbolTableRecord
100
AcDbLayerTableRecord
  2
ゴム
 70
     0
 62
    51
  6
Continuous
370
    13
390
5
  0
LAYER
  5
14D0
102
{ACAD_XDICTIONARY
360
14D1
102
}
330
ABB
100
AcDbSymbolTableRecord
100
AcDbLayerTableRecord
  2
嵩上平面
 70
     0
 62
   112
  6
HIDDEN
370
    13
390
5
  0
ENDTAB
  0
TABLE
  2
STYLE
  5
ABC
330
0
100
AcDbSymbolTable
 70
     4
  0
STYLE
  5
9
330
ABC
100
AcDbSymbolTableRecord
100
AcDbTextStyleTableRecord
  2
Standard
 70
     0
 40
0.0
 41
1.0
 50
0.0
 71
     0
 42
2.5
  3

  4

1001
ACAD
1000
MS Gothic
1071
    32817
  0
ENDTAB
  0
TABLE
  2
VIEW
  5
AC1
330
0
100
AcDbSymbolTable
 70
     0
  0
ENDTAB
  0
TABLE
  2
UCS
  5
AC2
330
0
100
AcDbSymbolTable
 70
     0
  0
ENDTAB
  0
TABLE
  2
APPID
  5
AC5
330
0
100
AcDbSymbolTable
 70
     5
  0
APPID
  5
A
330
AC5
100
AcDbSymbolTableRecord
100
AcDbRegAppTableRecord
  2
ACAD
 70
     0
  0
APPID
  5
141C
330
AC5
100
AcDbSymbolTableRecord
100
AcDbRegAppTableRecord
  2
ACAD_NAV_VCDISPLAY
 70
     0
  0
APPID
  5
145D
330
AC5
100
AcDbSymbolTableRecord
100
AcDbRegAppTableRecord
  2
ACAD_MLEADERVER
 70
     0
  0
APPID
  5
1527
330
AC5
100
AcDbSymbolTableRecord
100
AcDbRegAppTableRecord
  2
ACAD_EXEMPT_FROM_CAD_STANDARDS
 70
     0
  0
APPID
  5
1709
330
AC5
100
AcDbSymbolTableRecord
100
AcDbRegAppTableRecord
  2
AcLayerTools
 70
     0
  0
ENDTAB
  0
TABLE
  2
DIMSTYLE
  5
AC6
330
0
100
AcDbSymbolTable
 70
     3
100
AcDbDimStyleTable
 71
     1
340
D3
  0
DIMSTYLE
105
D3
102
{ACAD_REACTORS
330
55C
330
9A0
330
D2
330
F4
330
105
330
116
330
123
330
132
330
13F
330
AE2
102
}
330
AC6
100
AcDbSymbolTableRecord
100
AcDbDimStyleTableRecord
  2
ISO-25
 70
     0
 40
10.0
 41
1.5
 42
2.0
 43
3.75
 44
1.5
 73
     0
 74
     0
 77
     1
 78
     8
140
3.0
141
2.5
143
0.03937007874016
147
0.5
171
     3
172
     1
271
     2
272
     2
274
     3
283
     0
284
     8
289
     0
340
9
341
D4
342
D4
  0
DIMSTYLE
105
1385
330
AC6
100
AcDbSymbolTableRecord
100
AcDbDimStyleTableRecord
  2
Standard
 70
     0
340
9
  0
ENDTAB
  0
TABLE
  2
BLOCK_RECORD
  5
1
330
0
100
AcDbSymbolTable
 70
    32
  0
BLOCK_RECORD
  5
2
102
{ACAD_XDICTIONARY
360
AA9
102
}
330
1
100
AcDbSymbolTableRecord
100
AcDbBlockTableRecord
  2
*Model_Space
340
AAD
  0
BLOCK_RECORD
  5
AAF
102
{ACAD_XDICTIONARY
360
AB0
102
}
330
1
100
AcDbSymbolTableRecord
100
AcDbBlockTableRecord
  2
*Paper_Space
340
AB4
  0
BLOCK_RECORD
  5
AB5
102
{ACAD_XDICTIONARY
360
AB6
102
}
330
1
100
AcDbSymbolTableRecord
100
AcDbBlockTableRecord
  2
*Paper_Space0
340
ABA
  0
BLOCK_RECORD
  5
D4
330
1
100
AcDbSymbolTableRecord
100
AcDbBlockTableRecord
  2
_Open30
340
0
102
{BLKREFS
331
16F7
331
16F8
331
1700
331
1701
331
159D
331
159E
331
15A6
331
15A7
331
15AF
331
15B0
331
15FD
331
15FE
331
1611
331
1612
331
161C
331
161D
331
1625
331
1626
331
1639
331
163A
102
}
  0
BLOCK_RECORD
  5
65
330
1
100
AcDbSymbolTableRecord
100
AcDbBlockTableRecord
  2
GIB詳細
340
0
102
{BLKREFS
331
63
102
}
1001
ACAD
1000
DesignCenter Data
1002
{
1070
     1
1070
     4
1002
}
  0
BLOCK_RECORD
  5
56A
330
1
100
AcDbSymbolTableRecord
100
AcDbBlockTableRecord
  2
TB6
340
0
102
{BLKREFS
331
569
331
572
331
573
331
574
331
ADD
331
ADE
331
ADF
331
AE0
331
AE1
331
99B
102
}
1001
ACAD
1000
DesignCenter Data
1002
{
1070
     1
1070
     4
1002
}
  0
BLOCK_RECORD
  5
A97
330
1
100
AcDbSymbolTableRecord
100
AcDbBlockTableRecord
  2
平ゴムパッキン
340
0
102
{BLKREFS
331
1540
331
A96
102
}
  0
BLOCK_RECORD
  5
55D
330
1
100
AcDbSymbolTableRecord
100
AcDbBlockTableRecord
  2
*D5
340
0
  0
BLOCK_RECORD
  5
9A1
330
1
100
AcDbSymbolTableRecord
100
AcDbBlockTableRecord
  2
*D6
340
0
  0
BLOCK_RECORD
  5
DA
330
1
100
AcDbSymbolTableRecord
100
AcDbBlockTableRecord
  2
*D7
340
0
  0
BLOCK_RECORD
  5
F5
330
1
100
AcDbSymbolTableRecord
100
AcDbBlockTableRecord
  2
*D8
340
0
  0
BLOCK_RECORD
  5
106
330
1
100
AcDbSymbolTableRecord
100
AcDbBlockTableRecord
  2
*D9
340
0
  0
BLOCK_RECORD
  5
117
330
1
100
AcDbSymbolTableRecord
100
AcDbBlockTableRecord
  2
*D10
340
0
  0
BLOCK_RECORD
  5
124
330
1
100
AcDbSymbolTableRecord
100
AcDbBlockTableRecord
  2
*D11
340
0
  0
BLOCK_RECORD
  5
133
330
1
100
AcDbSymbolTableRecord
100
AcDbBlockTableRecord
  2
*D12
340
0
  0
BLOCK_RECORD
  5
140
330
1
100
AcDbSymbolTableRecord
100
AcDbBlockTableRecord
  2
*D13
340
0
  0
BLOCK_RECORD
  5
AE3
330
1
100
AcDbSymbolTableRecord
100
AcDbBlockTableRecord
  2
*D14
340
0
  0
BLOCK_RECORD
  5
1373
330
1
100
AcDbSymbolTableRecord
100
AcDbBlockTableRecord
  2
清水
340
0
102
{BLKREFS
331
1381
102
}
1001
ACAD
1000
DesignCenter Data
1002
{
1070
     1
1070
     4
1002
}
  0
BLOCK_RECORD
  5
1472
102
{ACAD_XDICTIONARY
360
1473
102
}
330
1
100
AcDbSymbolTableRecord
100
AcDbBlockTableRecord
  2
鎌下
340
0
102
{BLKREFS
331
1484
102
}
1001
ACAD
1000
DesignCenter Data
1002
{
1070
     1
1070
     4
1002
}
  0
BLOCK_RECORD
  5
1530
330
1
100
AcDbSymbolTableRecord
100
AcDbBlockTableRecord
  2
P-H60
340
0
102
{BLKREFS
331
153E
331
1541
102
}
  0
BLOCK_RECORD
  5
1721
102
{ACAD_REACTORS
330
175A
102
}
330
1
100
AcDbSymbolTableRecord
100
AcDbBlockTableRecord
  2
*U28
340
0
102
{BLKREFS
331
175E
331
175F
331
1760
331
1761
331
1762
331
1763
331
1764
331
1765
331
1766
331
1767
331
1768
331
1769
331
176A
331
176B
331
176C
331
176D
102
}
  0
BLOCK_RECORD
  5
1724
102
{ACAD_XDICTIONARY
360
1886
102
}
102
{ACAD_REACTORS
330
1759
102
}
330
1
100
AcDbSymbolTableRecord
100
AcDbBlockTableRecord
  2
*U29
340
0
102
{BLKREFS
331
1727
102
}
  0
BLOCK_RECORD
  5
176F
102
{ACAD_REACTORS
330
17DB
102
}
330
1
100
AcDbSymbolTableRecord
100
AcDbBlockTableRecord
  2
*U30
340
0
102
{BLKREFS
331
17DF
331
17E0
331
17E1
331
17E2
331
17E3
331
17E4
331
17E5
331
17E6
331
17E7
331
17E8
331
17E9
331
17EA
331
17EB
331
17EC
331
17ED
331
17EE
102
}
  0
BLOCK_RECORD
  5
1772
102
{ACAD_XDICTIONARY
360
1889
102
}
102
{ACAD_REACTORS
330
17DA
102
}
330
1
100
AcDbSymbolTableRecord
100
AcDbBlockTableRecord
  2
*U31
340
0
102
{BLKREFS
331
1775
102
}
  0
ENDTAB
  0
ENDSEC
  0
SECTION
  2
BLOCKS
  0
BLOCK
  5
AAB
330
2
100
AcDbEntity
  8
0
100
AcDbBlockBegin
  2
*Model_Space
 70
     0
 10
0.0
 20
0.0
 30
0.0
  3
*Model_Space
  1

  0
ENDBLK
  5
AAC
330
2
100
AcDbEntity
  8
0
100
AcDbBlockEnd
  0
BLOCK
  5
AB2
330
AAF
100
AcDbEntity
 67
     1
  8
0
100
AcDbBlockBegin
  2
*Paper_Space
 70
     0
 10
0.0
 20
0.0
 30
0.0
  3
*Paper_Space
  1

  0
ENDBLK
  5
AB3
330
AAF
100
AcDbEntity
 67
     1
  8
0
100
AcDbBlockEnd
  0
BLOCK
  5
AB8
330
AB5
100
AcDbEntity
 67
     1
  8
0
100
AcDbBlockBegin
  2
*Paper_Space0
 70
     0
 10
0.0
 20
0.0
 30
0.0
  3
*Paper_Space0
  1

  0
ENDBLK
  5
AB9
330
AB5
100
AcDbEntity
 67
     1
  8
0
100
AcDbBlockEnd
  0
BLOCK
  5
D8
330
D4
100
AcDbEntity
  8
0
100
AcDbBlockBegin
  2
_Open30
 70
     0
 10
0.0
 20
0.0
 30
0.0
  3
_Open30
  1

  0
LINE
  5
D5
330
D4
100
AcDbEntity
  8
0
  6
ByBlock
 62
     0
370
    -2
100
AcDbLine
 10
-1.0
 20
0.26794919
 30
0.0
 11
0.0
 21
0.0
 31
0.0
  0
LINE
  5
D6
330
D4
100
AcDbEntity
  8
0
  6
ByBlock
 62
     0
370
    -2
100
AcDbLine
 10
0.0
 20
0.0
 30
0.0
 11
-1.0
 21
-0.26794919
 31
0.0
  0
LINE
  5
D7
330
D4
100
AcDbEntity
  8
0
  6
ByBlock
 62
     0
370
    -2
100
AcDbLine
 10
0.0
 20
0.0
 30
0.0
 11
-1.0
 21
0.0
 31
0.0
  0
ENDBLK
  5
D9
330
D4
100
AcDbEntity
  8
0
100
AcDbBlockEnd
  0
BLOCK
  5
A9
330
65
100
AcDbEntity
  8
0
100
AcDbBlockBegin
  2
GIB詳細
 70
     0
 10
0.0
 20
0.0
 30
0.0
  3
GIB詳細
  1

  0
LINE
  5
66
330
65
100
AcDbEntity
  8
エンボス
  6
Continuous
370
     0
100
AcDbLine
 10
26.66967878750091
 20
-77.78386766485943
 30
0.0
 11
26.66967878750109
 21
-100.7518676648589
 31
0.0
  0
LINE
  5
68
330
65
100
AcDbEntity
  8
エンボス
  6
Continuous
370
     0
100
AcDbLine
 10
20.62167878750051
 20
-97.43986766485926
 30
0.0
 11
20.62167878750057
 21
-100.7518676648589
 31
0.0
  0
LINE
  5
69
330
65
100
AcDbEntity
  8
本体
370
     0
100
AcDbLine
 10
37.90167878750151
 20
79.24813233514118
 30
0.0
 11
37.90167878750151
 21
-100.7518676648589
 31
0.0
  0
LINE
  5
6B
330
65
100
AcDbEntity
  8
エンボス
370
     0
100
AcDbLine
 10
26.66967878750091
 20
38.64013233514075
 30
0.0
 11
26.66967878750091
 21
12.93613233514055
 31
0.0
  0
LINE
  5
6C
330
65
100
AcDbEntity
  8
エンボス
370
     0
100
AcDbLine
 10
26.66967878750091
 20
40.15213233514034
 30
0.0
 11
26.66967878750091
 21
12.93613233514055
 31
0.0
  0
LINE
  5
6D
330
65
100
AcDbEntity
  8
エンボス
370
     0
100
AcDbLine
 10
20.62167878750051
 20
59.80813233514115
 30
0.0
 11
20.62167878750051
 21
32.59213233514036
 31
0.0
  0
LINE
  5
6E
330
65
100
AcDbEntity
  8
エンボス
  6
Continuous
370
     0
100
AcDbLine
 10
8.525678787500737
 20
26.54413233514095
 30
0.0
 11
20.62167878750051
 21
20.49613233514056
 31
0.0
  0
LINE
  5
6F
330
65
100
AcDbEntity
  8
エンボス
  6
Continuous
370
     0
100
AcDbLine
 10
8.525678787500737
 20
26.54413233514095
 30
0.0
 11
20.62167878750051
 21
32.59213233514036
 31
0.0
  0
LINE
  5
70
330
65
100
AcDbEntity
  8
エンボス
  6
Continuous
370
     0
100
AcDbLine
 10
8.525678787500737
 20
-91.39186766485886
 30
0.0
 11
20.62167878750051
 21
-85.34386766485942
 31
0.0
  0
LINE
  5
71
330
65
100
AcDbEntity
  8
エンボス
  6
Continuous
370
     0
100
AcDbLine
 10
8.525678787500737
 20
-91.39186766485886
 30
0.0
 11
20.62167878750051
 21
-97.43986766485926
 31
0.0
  0
LINE
  5
72
330
65
100
AcDbEntity
  8
エンボス
  6
Continuous
370
     0
100
AcDbLine
 10
8.525678787500737
 20
-52.07986766485925
 30
0.0
 11
20.62167878750051
 21
-58.12786766485965
 31
0.0
  0
LINE
  5
73
330
65
100
AcDbEntity
  8
エンボス
  6
Continuous
370
     0
100
AcDbLine
 10
8.525678787500737
 20
-52.07986766485925
 30
0.0
 11
20.62167878750051
 21
-46.03186766485886
 31
0.0
  0
LINE
  5
74
330
65
100
AcDbEntity
  8
エンボス
  6
Continuous
370
     0
100
AcDbLine
 10
8.525678787500737
 20
-12.76786766485964
 30
0.0
 11
20.62167878750051
 21
-6.719867664859251
 31
0.0
  0
LINE
  5
75
330
65
100
AcDbEntity
  8
エンボス
  6
Continuous
370
     0
100
AcDbLine
 10
8.525678787500737
 20
-12.76786766485964
 30
0.0
 11
20.62167878750051
 21
-18.81586766485905
 31
0.0
  0
LINE
  5
76
330
65
100
AcDbEntity
  8
エンボス
  6
Continuous
370
     0
100
AcDbLine
 10
38.76567878750075
 20
6.888132335141136
 30
0.0
 11
26.66967878750091
 21
12.93613233514055
 31
0.0
  0
LINE
  5
77
330
65
100
AcDbEntity
  8
エンボス
  6
Continuous
370
     0
100
AcDbLine
 10
38.76567878750075
 20
-32.42386766485945
 30
0.0
 11
26.66967878750091
 21
-26.37586766485906
 31
0.0
  0
LINE
  5
78
330
65
100
AcDbEntity
  8
エンボス
  6
Continuous
370
     0
100
AcDbLine
 10
38.76567878750075
 20
-32.42386766485945
 30
0.0
 11
26.66967878750091
 21
-26.37586766485906
 31
0.0
  0
LINE
  5
79
330
65
100
AcDbEntity
  8
エンボス
  6
Continuous
370
     0
100
AcDbLine
 10
38.76567878750075
 20
-71.73586766485906
 30
0.0
 11
26.66967878750091
 21
-77.78386766485943
 31
0.0
  0
LINE
  5
7A
330
65
100
AcDbEntity
  8
エンボス
  6
Continuous
370
     0
100
AcDbLine
 10
38.76567878750075
 20
-71.73586766485906
 30
0.0
 11
26.66967878750091
 21
-77.78386766485943
 31
0.0
  0
LINE
  5
7B
330
65
100
AcDbEntity
  8
エンボス
  6
Continuous
370
     0
100
AcDbLine
 10
38.76567878750075
 20
-71.73586766485906
 30
0.0
 11
26.66967878750091
 21
-77.78386766485943
 31
0.0
  0
LINE
  5
7C
330
65
100
AcDbEntity
  8
エンボス
  6
Continuous
370
     0
100
AcDbLine
 10
38.76567878750075
 20
-32.42386766485945
 30
0.0
 11
26.66967878750091
 21
-38.47186766485886
 31
0.0
  0
LINE
  5
7D
330
65
100
AcDbEntity
  8
エンボス
  6
Continuous
370
     0
100
AcDbLine
 10
38.76567878750075
 20
-32.42386766485945
 30
0.0
 11
26.66967878750091
 21
-38.47186766485886
 31
0.0
  0
LINE
  5
7E
330
65
100
AcDbEntity
  8
エンボス
  6
Continuous
370
     0
100
AcDbLine
 10
38.76567878750075
 20
-71.73586766485906
 30
0.0
 11
26.66967878750091
 21
-65.68786766485965
 31
0.0
  0
LINE
  5
7F
330
65
100
AcDbEntity
  8
エンボス
  6
Continuous
370
     0
100
AcDbLine
 10
38.76567878750075
 20
-71.73586766485906
 30
0.0
 11
26.66967878750091
 21
-65.68786766485965
 31
0.0
  0
LINE
  5
80
330
65
100
AcDbEntity
  8
エンボス
  6
Continuous
370
     0
100
AcDbLine
 10
38.76567878750075
 20
-71.73586766485906
 30
0.0
 11
26.66967878750091
 21
-65.68786766485965
 31
0.0
  0
LINE
  5
81
330
65
100
AcDbEntity
  8
エンボス
  6
Continuous
370
     0
100
AcDbLine
 10
26.66967878750091
 20
-38.47186766485886
 30
0.0
 11
26.66967878750091
 21
-65.68786766485965
 31
0.0
  0
LINE
  5
82
330
65
100
AcDbEntity
  8
エンボス
  6
Continuous
370
     0
100
AcDbLine
 10
26.66967878750091
 20
0.8401323351407512
 30
0.0
 11
26.66967878750091
 21
-26.37586766485906
 31
0.0
  0
LINE
  5
83
330
65
100
AcDbEntity
  8
エンボス
  6
Continuous
370
     0
100
AcDbLine
 10
20.62167878750051
 20
-18.81586766485905
 30
0.0
 11
20.62167878750051
 21
-46.03186766485886
 31
0.0
  0
LINE
  5
84
330
65
100
AcDbEntity
  8
エンボス
  6
Continuous
370
     0
100
AcDbLine
 10
20.62167878750051
 20
-58.12786766485965
 30
0.0
 11
20.62167878750051
 21
-85.34386766485942
 31
0.0
  0
LINE
  5
85
330
65
100
AcDbEntity
  8
エンボス
  6
Continuous
370
     0
100
AcDbLine
 10
20.62167878750051
 20
20.49613233514056
 30
0.0
 11
20.62167878750051
 21
-6.719867664859251
 31
0.0
  0
LINE
  5
86
330
65
100
AcDbEntity
  8
エンボス
  6
Continuous
370
     0
100
AcDbLine
 10
38.76567878750075
 20
6.888132335141136
 30
0.0
 11
26.66967878750091
 21
0.8401323351407512
 31
0.0
  0
LINE
  5
87
330
65
100
AcDbEntity
  8
エンボス
  6
Continuous
370
     0
100
AcDbLine
 10
8.525678787500737
 20
73.20013233514075
 30
0.0
 11
20.62167878750051
 21
79.24813233514118
 31
0.0
  0
LINE
  5
88
330
65
100
AcDbEntity
  8
エンボス
  6
Continuous
370
     0
100
AcDbLine
 10
8.525678787500737
 20
73.20013233514075
 30
0.0
 11
20.62167878750051
 21
59.80813233514115
 31
0.0
  0
LINE
  5
89
330
65
100
AcDbEntity
  8
エンボス
370
     0
100
AcDbLine
 10
26.66967878750091
 20
79.24813233514118
 30
0.0
 11
26.66967878750091
 21
52.24813233514115
 31
0.0
  0
LINE
  5
8A
330
65
100
AcDbEntity
  8
エンボス
  6
Continuous
370
     0
100
AcDbLine
 10
38.76567878750075
 20
46.20013233514074
 30
0.0
 11
26.66967878750091
 21
52.24813233514115
 31
0.0
  0
LINE
  5
8B
330
65
100
AcDbEntity
  8
エンボス
  6
Continuous
370
     0
100
AcDbLine
 10
38.76567878750075
 20
46.20013233514074
 30
0.0
 11
26.66967878750091
 21
40.15213233514034
 31
0.0
  0
LINE
  5
8C
330
65
100
AcDbEntity
  8
本体
370
     0
100
AcDbLine
 10
7.6616787875015
 20
79.24813233514118
 30
0.0
 11
7.6616787875015
 21
-100.7518676648589
 31
0.0
  0
MTEXT
  5
8D
330
65
100
AcDbEntity
  8
本体
  6
Continuous
370
     0
100
AcDbMText
 10
-96.91195000051369
 20
158.2682376554469
 30
0.0
 40
30.0
 41
252.8401
 71
     1
 72
     5
  1
GIB形状詳細
 73
     1
 44
1.0
1001
ACAD
1000
MTEXTBEGIN
1070
    73
1070
     1
1070
    44
1040
1.0
1070
    74
1070
     0
1000
MTEXTEND
  0
MTEXT
  5
8E
330
65
100
AcDbEntity
  8
寸法線
  6
Continuous
100
AcDbMText
 10
-147.3028652710904
 20
1772.180188660315
 30
0.0
 40
20.0
 41
17.2146
 71
     7
 72
     1
  1

 73
     1
 44
1.0
1001
ACAD
1000
MTEXTBEGIN
1070
    73
1070
     1
1070
    44
1040
1.0
1070
    74
1070
     0
1000
MTEXTEND
  0
MTEXT
  5
8F
330
65
100
AcDbEntity
  8
寸法線
  6
Continuous
100
AcDbMText
 10
125.7829597280838
 20
3773.683923873501
 30
0.0
 40
30.0
 41
17.2146
 71
     7
 72
     1
  1

 73
     1
 44
1.0
1001
ACAD
1000
MTEXTBEGIN
1070
    73
1070
     1
1070
    44
1040
1.0
1070
    74
1070
     0
1000
MTEXTEND
  0
MTEXT
  5
90
330
65
100
AcDbEntity
  8
寸法線
  6
Continuous
100
AcDbMText
 10
-609.4758544225992
 20
3746.116575025764
 30
0.0
 40
20.0
 41
17.2146
 71
     7
 72
     1
  1

 73
     1
 44
1.0
1001
ACAD
1000
MTEXTBEGIN
1070
    73
1070
     1
1070
    44
1040
1.0
1070
    74
1070
     0
1000
MTEXTEND
  0
MTEXT
  5
91
330
65
100
AcDbEntity
  8
寸法線
  6
Continuous
100
AcDbMText
 10
-147.3028652710904
 20
1754.680188660315
 30
0.0
 40
20.0
 41
17.2146
 71
     7
 72
     1
  1

 73
     1
 44
1.0
1001
ACAD
1000
MTEXTBEGIN
1070
    73
1070
     1
1070
    44
1040
1.0
1070
    74
1070
     0
1000
MTEXTEND
  0
MTEXT
  5
92
330
65
100
AcDbEntity
  8
寸法線
  6
Continuous
100
AcDbMText
 10
125.7829597280838
 20
3756.183923873501
 30
0.0
 40
30.0
 41
17.2146
 71
     7
 72
     1
  1

 73
     1
 44
1.0
1001
ACAD
1000
MTEXTBEGIN
1070
    73
1070
     1
1070
    44
1040
1.0
1070
    74
1070
     0
1000
MTEXTEND
  0
MTEXT
  5
93
330
65
100
AcDbEntity
  8
寸法線
  6
Continuous
100
AcDbMText
 10
-609.4758544225992
 20
3728.616575025763
 30
0.0
 40
20.0
 41
17.2146
 71
     7
 72
     1
  1

 73
     1
 44
1.0
1001
ACAD
1000
MTEXTBEGIN
1070
    73
1070
     1
1070
    44
1040
1.0
1070
    74
1070
     0
1000
MTEXTEND
  0
MTEXT
  5
94
330
65
100
AcDbEntity
  8
寸法線
  6
Continuous
100
AcDbMText
 10
-147.3028652710904
 20
1704.680188660315
 30
0.0
 40
20.0
 41
17.2146
 71
     7
 72
     1
  1

 73
     1
 44
1.0
1001
ACAD
1000
MTEXTBEGIN
1070
    73
1070
     1
1070
    44
1040
1.0
1070
    74
1070
     0
1000
MTEXTEND
  0
MTEXT
  5
95
330
65
100
AcDbEntity
  8
寸法線
  6
Continuous
100
AcDbMText
 10
125.7829597280838
 20
3706.183923873501
 30
0.0
 40
30.0
 41
17.2146
 71
     7
 72
     1
  1

 73
     1
 44
1.0
1001
ACAD
1000
MTEXTBEGIN
1070
    73
1070
     1
1070
    44
1040
1.0
1070
    74
1070
     0
1000
MTEXTEND
  0
MTEXT
  5
96
330
65
100
AcDbEntity
  8
寸法線
  6
Continuous
100
AcDbMText
 10
-609.4758544225992
 20
3678.616575025763
 30
0.0
 40
20.0
 41
17.2146
 71
     7
 72
     1
  1

 73
     1
 44
1.0
1001
ACAD
1000
MTEXTBEGIN
1070
    73
1070
     1
1070
    44
1040
1.0
1070
    74
1070
     0
1000
MTEXTEND
  0
MTEXT
  5
97
330
65
100
AcDbEntity
  8
寸法線
  6
Continuous
100
AcDbMText
 10
-147.3028652710904
 20
1654.680188660315
 30
0.0
 40
20.0
 41
17.2146
 71
     7
 72
     1
  1

 73
     1
 44
1.0
1001
ACAD
1000
MTEXTBEGIN
1070
    73
1070
     1
1070
    44
1040
1.0
1070
    74
1070
     0
1000
MTEXTEND
  0
MTEXT
  5
98
330
65
100
AcDbEntity
  8
寸法線
  6
Continuous
100
AcDbMText
 10
125.7829597280838
 20
3656.183923873501
 30
0.0
 40
30.0
 41
17.2146
 71
     7
 72
     1
  1

 73
     1
 44
1.0
1001
ACAD
1000
MTEXTBEGIN
1070
    73
1070
     1
1070
    44
1040
1.0
1070
    74
1070
     0
1000
MTEXTEND
  0
MTEXT
  5
99
330
65
100
AcDbEntity
  8
寸法線
  6
Continuous
100
AcDbMText
 10
-609.4758544225992
 20
3628.616575025763
 30
0.0
 40
20.0
 41
17.2146
 71
     7
 72
     1
  1

 73
     1
 44
1.0
1001
ACAD
1000
MTEXTBEGIN
1070
    73
1070
     1
1070
    44
1040
1.0
1070
    74
1070
     0
1000
MTEXTEND
  0
MTEXT
  5
9A
330
65
100
AcDbEntity
  8
寸法線
  6
Continuous
100
AcDbMText
 10
-147.3028652710904
 20
1604.680188660315
 30
0.0
 40
20.0
 41
17.2146
 71
     7
 72
     1
  1

 73
     1
 44
1.0
1001
ACAD
1000
MTEXTBEGIN
1070
    73
1070
     1
1070
    44
1040
1.0
1070
    74
1070
     0
1000
MTEXTEND
  0
MTEXT
  5
9B
330
65
100
AcDbEntity
  8
寸法線
  6
Continuous
100
AcDbMText
 10
125.7829597280838
 20
3606.183923873501
 30
0.0
 40
30.0
 41
17.2146
 71
     7
 72
     1
  1

 73
     1
 44
1.0
1001
ACAD
1000
MTEXTBEGIN
1070
    73
1070
     1
1070
    44
1040
1.0
1070
    74
1070
     0
1000
MTEXTEND
  0
MTEXT
  5
9C
330
65
100
AcDbEntity
  8
寸法線
  6
Continuous
100
AcDbMText
 10
-609.4758544225992
 20
3578.616575025763
 30
0.0
 40
20.0
 41
17.2146
 71
     7
 72
     1
  1

 73
     1
 44
1.0
1001
ACAD
1000
MTEXTBEGIN
1070
    73
1070
     1
1070
    44
1040
1.0
1070
    74
1070
     0
1000
MTEXTEND
  0
MTEXT
  5
9D
330
65
100
AcDbEntity
  8
寸法線
  6
Continuous
100
AcDbMText
 10
-147.3028652710904
 20
1554.680188660315
 30
0.0
 40
20.0
 41
17.2146
 71
     7
 72
     1
  1

 73
     1
 44
1.0
1001
ACAD
1000
MTEXTBEGIN
1070
    73
1070
     1
1070
    44
1040
1.0
1070
    74
1070
     0
1000
MTEXTEND
  0
MTEXT
  5
9E
330
65
100
AcDbEntity
  8
寸法線
  6
Continuous
100
AcDbMText
 10
125.7829597280838
 20
3556.183923873501
 30
0.0
 40
30.0
 41
17.2146
 71
     7
 72
     1
  1

 73
     1
 44
1.0
1001
ACAD
1000
MTEXTBEGIN
1070
    73
1070
     1
1070
    44
1040
1.0
1070
    74
1070
     0
1000
MTEXTEND
  0
MTEXT
  5
9F
330
65
100
AcDbEntity
  8
寸法線
  6
Continuous
100
AcDbMText
 10
-609.4758544225992
 20
3528.616575025763
 30
0.0
 40
20.0
 41
17.2146
 71
     7
 72
     1
  1

 73
     1
 44
1.0
1001
ACAD
1000
MTEXTBEGIN
1070
    73
1070
     1
1070
    44
1040
1.0
1070
    74
1070
     0
1000
MTEXTEND
  0
MTEXT
  5
A0
330
65
100
AcDbEntity
  8
寸法線
  6
Continuous
100
AcDbMText
 10
-147.3028652710904
 20
1504.680188660315
 30
0.0
 40
20.0
 41
17.2146
 71
     7
 72
     1
  1

 73
     1
 44
1.0
1001
ACAD
1000
MTEXTBEGIN
1070
    73
1070
     1
1070
    44
1040
1.0
1070
    74
1070
     0
1000
MTEXTEND
  0
MTEXT
  5
A1
330
65
100
AcDbEntity
  8
寸法線
  6
Continuous
100
AcDbMText
 10
125.7829597280838
 20
3506.183923873501
 30
0.0
 40
30.0
 41
17.2146
 71
     7
 72
     1
  1

 73
     1
 44
1.0
1001
ACAD
1000
MTEXTBEGIN
1070
    73
1070
     1
1070
    44
1040
1.0
1070
    74
1070
     0
1000
MTEXTEND
  0
MTEXT
  5
A2
330
65
100
AcDbEntity
  8
寸法線
  6
Continuous
100
AcDbMText
 10
-609.4758544225992
 20
3478.616575025763
 30
0.0
 40
20.0
 41
17.2146
 71
     7
 72
     1
  1

 73
     1
 44
1.0
1001
ACAD
1000
MTEXTBEGIN
1070
    73
1070
     1
1070
    44
1040
1.0
1070
    74
1070
     0
1000
MTEXTEND
  0
MTEXT
  5
A3
330
65
100
AcDbEntity
  8
寸法線
  6
Continuous
100
AcDbMText
 10
-147.3028652710904
 20
1454.680188660315
 30
0.0
 40
20.0
 41
17.2146
 71
     7
 72
     1
  1

 73
     1
 44
1.0
1001
ACAD
1000
MTEXTBEGIN
1070
    73
1070
     1
1070
    44
1040
1.0
1070
    74
1070
     0
1000
MTEXTEND
  0
MTEXT
  5
A4
330
65
100
AcDbEntity
  8
寸法線
  6
Continuous
100
AcDbMText
 10
125.7829597280838
 20
3456.183923873501
 30
0.0
 40
30.0
 41
17.2146
 71
     7
 72
     1
  1

 73
     1
 44
1.0
1001
ACAD
1000
MTEXTBEGIN
1070
    73
1070
     1
1070
    44
1040
1.0
1070
    74
1070
     0
1000
MTEXTEND
  0
MTEXT
  5
A5
330
65
100
AcDbEntity
  8
寸法線
  6
Continuous
100
AcDbMText
 10
-609.4758544225992
 20
3428.616575025763
 30
0.0
 40
20.0
 41
17.2146
 71
     7
 72
     1
  1

 73
     1
 44
1.0
1001
ACAD
1000
MTEXTBEGIN
1070
    73
1070
     1
1070
    44
1040
1.0
1070
    74
1070
     0
1000
MTEXTEND
  0
LWPOLYLINE
  5
A6
330
65
100
AcDbEntity
  8
本体
  6
Continuous
100
AcDbPolyline
 90
        4
 70
     1
 43
0.0
 10
-139.6145379512674
 20
168.6157088891093
 10
194.701175139303
 20
168.6157088891093
 10
194.701175139303
 20
-117.6274822929807
 10
-139.6145379512674
 20
-117.6274822929807
  0
HATCH
  5
A7
330
65
100
AcDbEntity
  8
エンボス
  6
Continuous
100
AcDbHatch
 10
0.0
 20
0.0
 30
0.0
210
0.0
220
0.0
230
1.0
  2
ANSI31
 70
     0
 71
     0
 91
        1
 92
        7
 72
     0
 73
     1
 93
       34
 10
26.66967878750092
 20
40.15213233514035
 10
37.90167878750151
 20
45.76813233514108
 10
37.90167878750151
 20
46.63213233514041
 10
26.66967878750092
 20
52.24813233514115
 10
26.66967878750091
 20
79.24813233514116
 10
20.62167878750047
 20
79.24813233514116
 10
8.525678787500744
 20
73.20013233514076
 10
20.62167878750051
 20
59.80813233514115
 10
20.62167878750051
 20
32.59213233514036
 10
8.525678787500737
 20
26.54413233514094
 10
20.62167878750051
 20
20.49613233514056
 10
20.62167878750051
 20
-6.719867664859251
 10
8.525678787500737
 20
-12.76786766485964
 10
20.62167878750051
 20
-18.81586766485905
 10
20.62167878750051
 20
-46.03186766485887
 10
8.525678787500737
 20
-52.07986766485925
 10
20.62167878750051
 20
-58.12786766485965
 10
20.62167878750051
 20
-85.34386766485944
 10
8.525678787500737
 20
-91.39186766485885
 10
20.62167878750051
 20
-97.43986766485924
 10
20.62167878750057
 20
-100.7518676648588
 10
26.66967878750109
 20
-100.7518676648589
 10
26.66967878750091
 20
-77.78386766485944
 10
37.90167878750151
 20
-72.16786766485872
 10
37.90167878750151
 20
-71.30386766485948
 10
26.66967878750091
 20
-65.68786766485963
 10
26.66967878750091
 20
-38.47186766485886
 10
37.90167878750151
 20
-32.85586766485902
 10
37.90167878750151
 20
-31.99186766485979
 10
26.66967878750091
 20
-26.37586766485906
 10
26.66967878750091
 20
0.8401323351407494
 10
37.90167878750151
 20
6.456132335141482
 10
37.90167878750151
 20
7.320132335140719
 10
26.66967878750091
 20
12.93613233514056
 97
        0
 75
     0
 76
     1
 52
0.0
 41
0.5
 77
     0
 78
     1
 53
45.0
 43
8.525678787500737
 44
-12.76786766485964
 45
-1.122532015133643
 46
1.122532015133644
 79
     0
 47
0.5074757335946297
 98
        1
 10
23.11907519037527
 20
30.63971558616095
  0
MTEXT
  5
A8
330
65
100
AcDbEntity
  8
本体
  6
Continuous
100
AcDbMText
 10
-79.8847425412946
 20
110.9530386434795
 30
0.0
 40
15.0
 41
230.6957
 71
     1
 72
     5
  1
※塗りつぶし部分突起
 73
     1
 44
1.0
1001
ACAD
1000
MTEXTBEGIN
1070
    73
1070
     1
1070
    44
1040
1.0
1070
    74
1070
     0
1000
MTEXTEND
  0
ENDBLK
  5
AA
330
65
100
AcDbEntity
  8
0
100
AcDbBlockEnd
  0
BLOCK
  5
570
330
56A
100
AcDbEntity
  8
0
100
AcDbBlockBegin
  2
TB6
 70
     0
 10
0.0
 20
0.0
 30
0.0
  3
TB6
  1

  0
MTEXT
  5
56B
330
56A
100
AcDbEntity
  8
寸法線
  6
Continuous
100
AcDbMText
 10
917.3216494432054
 20
235.349302881973
 30
0.0
 40
20.0
 41
17.2146
 71
     7
 72
     1
  1

 73
     1
 44
1.0
1001
ACAD
1000
MTEXTBEGIN
1070
    73
1070
     1
1070
    44
1040
1.0
1070
    74
1070
     0
1000
MTEXTEND
  0
LINE
  5
56C
330
56A
100
AcDbEntity
  8
本体
  6
CENTER
 62
     1
 48
0.3
100
AcDbLine
 10
9.0
 20
0.0
 30
0.0
 11
-3.0
 21
0.0
 31
0.0
  0
LINE
  5
56E
330
56A
100
AcDbEntity
  8
本体
  6
CENTER
 62
     1
 48
0.3
100
AcDbLine
 10
3.0
 20
6.0
 30
0.0
 11
3.0
 21
-6.0
 31
0.0
  0
CIRCLE
  5
56F
330
56A
100
AcDbEntity
  8
本体
  6
Continuous
 62
     0
100
AcDbCircle
 10
3.0
 20
0.0
 30
0.0
 40
3.0
  0
ENDBLK
  5
571
330
56A
100
AcDbEntity
  8
0
100
AcDbBlockEnd
  0
BLOCK
  5
AA6
330
A97
100
AcDbEntity
  8
0
100
AcDbBlockBegin
  2
平ゴムパッキン
 70
     0
 10
0.0
 20
0.0
 30
0.0
  3
平ゴムパッキン
  1

  0
LINE
  5
1386
330
A97
100
AcDbEntity
  8
ゴム
100
AcDbLine
 10
3.000005000000001
 20
-0.0000109999999998
 30
0.0
 11
3.000005000000001
 21
-40.000011
 31
0.0
  0
LINE
  5
1387
330
A97
100
AcDbEntity
  8
ゴム
100
AcDbLine
 10
3.000005000000001
 20
-0.0000109999999998
 30
0.0
 11
8.000005000000001
 21
-0.0000109999999998
 31
0.0
  0
LINE
  5
1388
330
A97
100
AcDbEntity
  8
ゴム
100
AcDbLine
 10
3.000005000000001
 20
-40.000011
 30
0.0
 11
8.000005000000001
 21
-40.000011
 31
0.0
  0
LINE
  5
1389
330
A97
100
AcDbEntity
  8
ゴム
100
AcDbLine
 10
8.000005000000001
 20
-0.0000109999999998
 30
0.0
 11
8.000005000000001
 21
-10.000011
 31
0.0
  0
LINE
  5
138A
330
A97
100
AcDbEntity
  8
ゴム
100
AcDbLine
 10
8.000005000000001
 20
-30.000011
 30
0.0
 11
8.000005000000001
 21
-40.000011
 31
0.0
  0
LINE
  5
138B
330
A97
100
AcDbEntity
  8
ゴム
100
AcDbLine
 10
8.000005000000001
 20
-10.000011
 30
0.0
 11
8.000005000000001
 21
-30.000011
 31
0.0
  0
LINE
  5
138C
330
A97
100
AcDbEntity
  8
ゴム
100
AcDbLine
 10
5.874546000000002
 20
-40.000011
 30
0.0
 11
8.000005000000001
 21
-36.318608
 31
0.0
  0
LINE
  5
138D
330
A97
100
AcDbEntity
  8
ゴム
100
AcDbLine
 10
3.000005000000001
 20
-38.978862
 30
0.0
 11
8.000005000000001
 21
-30.318608
 31
0.0
  0
LINE
  5
138E
330
A97
100
AcDbEntity
  8
ゴム
100
AcDbLine
 10
3.000005000000001
 20
-32.978862
 30
0.0
 11
8.000005000000001
 21
-24.31860866666666
 31
0.0
  0
LINE
  5
138F
330
A97
100
AcDbEntity
  8
ゴム
100
AcDbLine
 10
3.000005000000001
 20
-26.978862
 30
0.0
 11
8.000005000000001
 21
-18.31860866666667
 31
0.0
  0
LINE
  5
1390
330
A97
100
AcDbEntity
  8
ゴム
100
AcDbLine
 10
3.000005000000001
 20
-20.978862
 30
0.0
 11
8.000005000000001
 21
-12.31860866666666
 31
0.0
  0
LINE
  5
1391
330
A97
100
AcDbEntity
  8
ゴム
100
AcDbLine
 10
3.000005000000001
 20
-14.978862
 30
0.0
 11
8.000005000000001
 21
-6.318608000000001
 31
0.0
  0
LINE
  5
1392
330
A97
100
AcDbEntity
  8
ゴム
100
AcDbLine
 10
3.000005000000001
 20
-8.978861999999999
 30
0.0
 11
8.000005000000001
 21
-0.3186080000000002
 31
0.0
  0
LINE
  5
1393
330
A97
100
AcDbEntity
  8
ゴム
100
AcDbLine
 10
3.000005000000001
 20
-2.978861999999999
 30
0.0
 11
4.719844999999999
 21
-0.0000109999999998
 31
0.0
  0
ENDBLK
  5
AA7
330
A97
100
AcDbEntity
  8
0
100
AcDbBlockEnd
  0
BLOCK
  5
567
330
55D
100
AcDbEntity
  8
0
 48
3.0
100
AcDbBlockBegin
  2
*D5
 70
     1
 10
0.0
 20
0.0
 30
0.0
  3
*D5
  1

  0
LINE
  5
16FD
330
55D
100
AcDbEntity
  8
寸法線
  6
Continuous
 62
     0
370
    -2
100
AcDbLine
 10
601.3732745944662
 20
544.529813074824
 30
0.0
 11
601.3732745944662
 21
699.5298130748241
 31
0.0
  0
LINE
  5
16FE
330
55D
100
AcDbEntity
  8
寸法線
  6
Continuous
 62
     0
370
    -2
100
AcDbLine
 10
1101.373274594466
 20
544.5298130748242
 30
0.0
 11
1101.373274594466
 21
699.5298130748241
 31
0.0
  0
LINE
  5
16FF
330
55D
100
AcDbEntity
  8
寸法線
  6
Continuous
 62
     0
370
    -2
100
AcDbLine
 10
616.3732745944662
 20
684.5298130748241
 30
0.0
 11
1086.373274594466
 21
684.5298130748241
 31
0.0
  0
INSERT
  5
1700
330
55D
100
AcDbEntity
  8
寸法線
  6
Continuous
 62
     0
370
    -2
100
AcDbBlockReference
  2
_Open30
 10
601.3732745944662
 20
684.5298130748241
 30
0.0
 41
15.0
 42
15.0
 43
15.0
 50
180.0
  0
INSERT
  5
1701
330
55D
100
AcDbEntity
  8
寸法線
  6
Continuous
 62
     0
370
    -2
100
AcDbBlockReference
  2
_Open30
 10
1101.373274594466
 20
684.5298130748241
 30
0.0
 41
15.0
 42
15.0
 43
15.0
  0
MTEXT
  5
1702
330
55D
100
AcDbEntity
  8
寸法線
  6
Continuous
 62
     0
100
AcDbMText
 10
851.3732745944661
 20
704.5298130748241
 30
0.0
 40
30.0
 41
0.0
 71
     5
 72
     1
  1
500
 73
     1
 44
1.0
1001
ACAD
1000
MTEXTBEGIN
1070
    73
1070
     1
1070
    44
1040
1.0
1070
    74
1070
     0
1000
MTEXTEND
  0
POINT
  5
1703
330
55D
100
AcDbEntity
  8
Defpoints
  6
Continuous
 62
     0
100
AcDbPoint
 10
601.3732745944662
 20
524.5298130748241
 30
0.0
  0
POINT
  5
1704
330
55D
100
AcDbEntity
  8
Defpoints
  6
Continuous
 62
     0
100
AcDbPoint
 10
1101.373274594466
 20
524.5298130748242
 30
0.0
  0
POINT
  5
1705
330
55D
100
AcDbEntity
  8
Defpoints
  6
Continuous
 62
     0
100
AcDbPoint
 10
1101.373274594466
 20
684.5298130748241
 30
0.0
  0
ENDBLK
  5
568
330
55D
100
AcDbEntity
  8
0
 48
3.0
100
AcDbBlockEnd
  0
BLOCK
  5
9AD
330
9A1
100
AcDbEntity
  8
0
 48
3.0
100
AcDbBlockBegin
  2
*D6
 70
     1
 10
0.0
 20
0.0
 30
0.0
  3
*D6
  1

  0
LINE
  5
1634
330
9A1
100
AcDbEntity
  8
寸法線
  6
Continuous
 62
     0
370
    -2
100
AcDbLine
 10
1118.873274594466
 20
432.5298130748241
 30
0.0
 11
1226.373274594466
 21
432.529813074824
 31
0.0
  0
LINE
  5
1635
330
9A1
100
AcDbEntity
  8
寸法線
  6
Continuous
 62
     0
370
    -2
100
AcDbLine
 10
1118.873274594466
 20
427.529813074824
 30
0.0
 11
1226.373274594466
 21
427.5298130748239
 31
0.0
  0
LINE
  5
1636
330
9A1
100
AcDbEntity
  8
寸法線
  6
Continuous
 62
     0
370
    -2
100
AcDbLine
 10
1211.373274594466
 20
447.5298130748241
 30
0.0
 11
1211.373274594466
 21
462.529813074824
 31
0.0
  0
LINE
  5
1637
330
9A1
100
AcDbEntity
  8
寸法線
  6
Continuous
 62
     0
370
    -2
100
AcDbLine
 10
1211.373274594466
 20
412.5298130748239
 30
0.0
 11
1211.373274594466
 21
371.9968181509661
 31
0.0
  0
LINE
  5
1638
330
9A1
100
AcDbEntity
  8
寸法線
  6
Continuous
 62
     0
370
    -2
100
AcDbLine
 10
1211.373274594466
 20
432.529813074824
 30
0.0
 11
1211.373274594466
 21
427.5298130748239
 31
0.0
  0
INSERT
  5
1639
330
9A1
100
AcDbEntity
  8
寸法線
  6
Continuous
 62
     0
370
    -2
100
AcDbBlockReference
  2
_Open30
 10
1211.373274594466
 20
432.529813074824
 30
0.0
 41
15.0
 42
15.0
 43
15.0
 50
270.0
  0
INSERT
  5
163A
330
9A1
100
AcDbEntity
  8
寸法線
  6
Continuous
 62
     0
370
    -2
100
AcDbBlockReference
  2
_Open30
 10
1211.373274594466
 20
427.5298130748239
 30
0.0
 41
15.0
 42
15.0
 43
15.0
 50
90.0
  0
MTEXT
  5
163B
330
9A1
100
AcDbEntity
  8
寸法線
  6
Continuous
 62
     0
100
AcDbMText
 10
1191.373274594466
 20
384.7633156128953
 30
0.0
 40
30.0
 41
0.0
 71
     5
 72
     1
  1
5
 11
0.0000000000000001
 21
1.0
 31
0.0
 73
     1
 44
1.0
1001
ACAD
1000
MTEXTBEGIN
1070
    73
1070
     1
1070
    44
1040
1.0
1070
    74
1070
     0
1000
MTEXTEND
  0
POINT
  5
163C
330
9A1
100
AcDbEntity
  8
Defpoints
  6
Continuous
 62
     0
100
AcDbPoint
 10
1098.873274594466
 20
432.5298130748241
 30
0.0
  0
POINT
  5
163D
330
9A1
100
AcDbEntity
  8
Defpoints
  6
Continuous
 62
     0
100
AcDbPoint
 10
1098.873274594466
 20
427.529813074824
 30
0.0
  0
POINT
  5
163E
330
9A1
100
AcDbEntity
  8
Defpoints
  6
Continuous
 62
     0
100
AcDbPoint
 10
1211.373274594466
 20
427.5298130748239
 30
0.0
  0
ENDBLK
  5
9AE
330
9A1
100
AcDbEntity
  8
0
 48
3.0
100
AcDbBlockEnd
  0
BLOCK
  5
E5
330
DA
100
AcDbEntity
  8
0
 48
3.0
100
AcDbBlockBegin
  2
*D7
 70
     1
 10
0.0
 20
0.0
 30
0.0
  3
*D7
  1

  0
LINE
  5
159A
330
DA
100
AcDbEntity
  8
寸法線
  6
Continuous
 62
     0
370
    -2
100
AcDbLine
 10
1826.265972790661
 20
1631.733416887393
 30
0.0
 11
1671.265972790661
 21
1631.733416887393
 31
0.0
  0
LINE
  5
159B
330
DA
100
AcDbEntity
  8
寸法線
  6
Continuous
 62
     0
370
    -2
100
AcDbLine
 10
1826.265972790661
 20
1101.733416887393
 30
0.0
 11
1671.265972790661
 21
1101.733416887393
 31
0.0
  0
LINE
  5
159C
330
DA
100
AcDbEntity
  8
寸法線
  6
Continuous
 62
     0
370
    -2
100
AcDbLine
 10
1686.265972790661
 20
1616.733416887393
 30
0.0
 11
1686.265972790661
 21
1116.733416887393
 31
0.0
  0
INSERT
  5
159D
330
DA
100
AcDbEntity
  8
寸法線
  6
Continuous
 62
     0
370
    -2
100
AcDbBlockReference
  2
_Open30
 10
1686.265972790661
 20
1631.733416887393
 30
0.0
 41
15.0
 42
15.0
 43
15.0
 50
90.0
  0
INSERT
  5
159E
330
DA
100
AcDbEntity
  8
寸法線
  6
Continuous
 62
     0
370
    -2
100
AcDbBlockReference
  2
_Open30
 10
1686.265972790661
 20
1101.733416887393
 30
0.0
 41
15.0
 42
15.0
 43
15.0
 50
270.0
  0
MTEXT
  5
159F
330
DA
100
AcDbEntity
  8
寸法線
  6
Continuous
 62
     0
100
AcDbMText
 10
1666.265972790661
 20
1366.733416887394
 30
0.0
 40
30.0
 41
0.0
 71
     5
 72
     1
  1
530
 11
0.0000000000000001
 21
1.0
 31
0.0
 73
     1
 44
1.0
1001
ACAD
1000
MTEXTBEGIN
1070
    73
1070
     1
1070
    44
1040
1.0
1070
    74
1070
     0
1000
MTEXTEND
  0
POINT
  5
15A0
330
DA
100
AcDbEntity
  8
Defpoints
  6
Continuous
 62
     0
100
AcDbPoint
 10
1846.265972790661
 20
1631.733416887393
 30
0.0
  0
POINT
  5
15A1
330
DA
100
AcDbEntity
  8
Defpoints
  6
Continuous
 62
     0
100
AcDbPoint
 10
1846.265972790661
 20
1101.733416887393
 30
0.0
  0
POINT
  5
15A2
330
DA
100
AcDbEntity
  8
Defpoints
  6
Continuous
 62
     0
100
AcDbPoint
 10
1686.265972790661
 20
1101.733416887393
 30
0.0
  0
ENDBLK
  5
E6
330
DA
100
AcDbEntity
  8
0
 48
3.0
100
AcDbBlockEnd
  0
BLOCK
  5
FF
330
F5
100
AcDbEntity
  8
0
 48
3.0
100
AcDbBlockBegin
  2
*D8
 70
     1
 10
0.0
 20
0.0
 30
0.0
  3
*D8
  1

  0
LINE
  5
15FA
330
F5
100
AcDbEntity
  8
寸法線
  6
Continuous
 62
     0
370
    -2
100
AcDbLine
 10
603.8732745944662
 20
412.5298130748241
 30
0.0
 11
603.8732745944662
 21
332.5298130748239
 31
0.0
  0
LINE
  5
15FB
330
F5
100
AcDbEntity
  8
寸法線
  6
Continuous
 62
     0
370
    -2
100
AcDbLine
 10
1098.873274594466
 20
407.5298130748238
 30
0.0
 11
1098.873274594466
 21
332.5298130748239
 31
0.0
  0
LINE
  5
15FC
330
F5
100
AcDbEntity
  8
寸法線
  6
Continuous
 62
     0
370
    -2
100
AcDbLine
 10
618.8732745944662
 20
347.5298130748239
 30
0.0
 11
1083.873274594466
 21
347.5298130748239
 31
0.0
  0
INSERT
  5
15FD
330
F5
100
AcDbEntity
  8
寸法線
  6
Continuous
 62
     0
370
    -2
100
AcDbBlockReference
  2
_Open30
 10
603.8732745944662
 20
347.5298130748239
 30
0.0
 41
15.0
 42
15.0
 43
15.0
 50
180.0
  0
INSERT
  5
15FE
330
F5
100
AcDbEntity
  8
寸法線
  6
Continuous
 62
     0
370
    -2
100
AcDbBlockReference
  2
_Open30
 10
1098.873274594466
 20
347.5298130748239
 30
0.0
 41
15.0
 42
15.0
 43
15.0
  0
MTEXT
  5
15FF
330
F5
100
AcDbEntity
  8
寸法線
  6
Continuous
 62
     0
100
AcDbMText
 10
851.3732745944661
 20
367.5298130748239
 30
0.0
 40
30.0
 41
0.0
 71
     5
 72
     1
  1
495
 73
     1
 44
1.0
1001
ACAD
1000
MTEXTBEGIN
1070
    73
1070
     1
1070
    44
1040
1.0
1070
    74
1070
     0
1000
MTEXTEND
  0
POINT
  5
1600
330
F5
100
AcDbEntity
  8
Defpoints
  6
Continuous
 62
     0
100
AcDbPoint
 10
603.8732745944662
 20
432.5298130748241
 30
0.0
  0
POINT
  5
1601
330
F5
100
AcDbEntity
  8
Defpoints
  6
Continuous
 62
     0
100
AcDbPoint
 10
1098.873274594466
 20
427.5298130748239
 30
0.0
  0
POINT
  5
1602
330
F5
100
AcDbEntity
  8
Defpoints
  6
Continuous
 62
     0
100
AcDbPoint
 10
1098.873274594466
 20
347.5298130748239
 30
0.0
  0
ENDBLK
  5
100
330
F5
100
AcDbEntity
  8
0
 48
3.0
100
AcDbBlockEnd
  0
BLOCK
  5
112
330
106
100
AcDbEntity
  8
0
 48
3.0
100
AcDbBlockBegin
  2
*D9
 70
     1
 10
0.0
 20
0.0
 30
0.0
  3
*D9
  1

  0
LINE
  5
16F2
330
106
100
AcDbEntity
  8
寸法線
  6
Continuous
 62
     0
370
    -2
100
AcDbLine
 10
933.8732745944662
 20
544.529813074824
 30
0.0
 11
933.8732745944662
 21
619.5298130748241
 31
0.0
  0
LINE
  5
16F3
330
106
100
AcDbEntity
  8
寸法線
  6
Continuous
 62
     0
370
    -2
100
AcDbLine
 10
963.8732745944663
 20
544.529813074824
 30
0.0
 11
963.8732745944663
 21
619.5298130748241
 31
0.0
  0
LINE
  5
16F4
330
106
100
AcDbEntity
  8
寸法線
  6
Continuous
 62
     0
370
    -2
100
AcDbLine
 10
918.8732745944662
 20
604.5298130748241
 30
0.0
 11
903.8732745944662
 21
604.5298130748241
 31
0.0
  0
LINE
  5
16F5
330
106
100
AcDbEntity
  8
寸法線
  6
Continuous
 62
     0
370
    -2
100
AcDbLine
 10
978.8732745944662
 20
604.5298130748241
 30
0.0
 11
1039.660076624923
 21
604.5298130748241
 31
0.0
  0
LINE
  5
16F6
330
106
100
AcDbEntity
  8
寸法線
  6
Continuous
 62
     0
370
    -2
100
AcDbLine
 10
933.8732745944662
 20
604.5298130748241
 30
0.0
 11
963.8732745944663
 21
604.5298130748241
 31
0.0
  0
INSERT
  5
16F7
330
106
100
AcDbEntity
  8
寸法線
  6
Continuous
 62
     0
370
    -2
100
AcDbBlockReference
  2
_Open30
 10
933.8732745944662
 20
604.5298130748241
 30
0.0
 41
15.0
 42
15.0
 43
15.0
  0
INSERT
  5
16F8
330
106
100
AcDbEntity
  8
寸法線
  6
Continuous
 62
     0
370
    -2
100
AcDbBlockReference
  2
_Open30
 10
963.8732745944663
 20
604.5298130748241
 30
0.0
 41
15.0
 42
15.0
 43
15.0
 50
180.0
  0
MTEXT
  5
16F9
330
106
100
AcDbEntity
  8
寸法線
  6
Continuous
 62
     0
100
AcDbMText
 10
1016.766675609694
 20
624.5298130748241
 30
0.0
 40
30.0
 41
0.0
 71
     5
 72
     1
  1
30
 73
     1
 44
1.0
1001
ACAD
1000
MTEXTBEGIN
1070
    73
1070
     1
1070
    44
1040
1.0
1070
    74
1070
     0
1000
MTEXTEND
  0
POINT
  5
16FA
330
106
100
AcDbEntity
  8
Defpoints
  6
Continuous
 62
     0
100
AcDbPoint
 10
933.8732745944662
 20
524.5298130748241
 30
0.0
  0
POINT
  5
16FB
330
106
100
AcDbEntity
  8
Defpoints
  6
Continuous
 62
     0
100
AcDbPoint
 10
963.8732745944663
 20
524.5298130748241
 30
0.0
  0
POINT
  5
16FC
330
106
100
AcDbEntity
  8
Defpoints
  6
Continuous
 62
     0
100
AcDbPoint
 10
963.8732745944663
 20
604.5298130748241
 30
0.0
  0
ENDBLK
  5
113
330
106
100
AcDbEntity
  8
0
 48
3.0
100
AcDbBlockEnd
  0
BLOCK
  5
121
330
117
100
AcDbEntity
  8
0
 48
3.0
100
AcDbBlockBegin
  2
*D10
 70
     1
 10
0.0
 20
0.0
 30
0.0
  3
*D10
  1

  0
LINE
  5
160E
330
117
100
AcDbEntity
  8
寸法線
  6
Continuous
 62
     0
370
    -2
100
AcDbLine
 10
1118.873274594466
 20
432.5298130748241
 30
0.0
 11
1226.373274594466
 21
432.529813074824
 31
0.0
  0
LINE
  5
160F
330
117
100
AcDbEntity
  8
寸法線
  6
Continuous
 62
     0
370
    -2
100
AcDbLine
 10
1118.873274594466
 20
492.5298130748241
 30
0.0
 11
1226.373274594466
 21
492.529813074824
 31
0.0
  0
LINE
  5
1610
330
117
100
AcDbEntity
  8
寸法線
  6
Continuous
 62
     0
370
    -2
100
AcDbLine
 10
1211.373274594466
 20
447.5298130748241
 30
0.0
 11
1211.373274594466
 21
477.529813074824
 31
0.0
  0
INSERT
  5
1611
330
117
100
AcDbEntity
  8
寸法線
  6
Continuous
 62
     0
370
    -2
100
AcDbBlockReference
  2
_Open30
 10
1211.373274594466
 20
432.529813074824
 30
0.0
 41
15.0
 42
15.0
 43
15.0
 50
270.0
  0
INSERT
  5
1612
330
117
100
AcDbEntity
  8
寸法線
  6
Continuous
 62
     0
370
    -2
100
AcDbBlockReference
  2
_Open30
 10
1211.373274594466
 20
492.529813074824
 30
0.0
 41
15.0
 42
15.0
 43
15.0
 50
90.0
  0
MTEXT
  5
1613
330
117
100
AcDbEntity
  8
寸法線
  6
Continuous
 62
     0
100
AcDbMText
 10
1191.373274594466
 20
462.5298130748243
 30
0.0
 40
30.0
 41
0.0
 71
     5
 72
     1
  1
60
 11
0.0000000000000001
 21
1.0
 31
0.0
 73
     1
 44
1.0
1001
ACAD
1000
MTEXTBEGIN
1070
    73
1070
     1
1070
    44
1040
1.0
1070
    74
1070
     0
1000
MTEXTEND
  0
POINT
  5
1614
330
117
100
AcDbEntity
  8
Defpoints
  6
Continuous
 62
     0
100
AcDbPoint
 10
1098.873274594466
 20
432.5298130748241
 30
0.0
  0
POINT
  5
1615
330
117
100
AcDbEntity
  8
Defpoints
  6
Continuous
 62
     0
100
AcDbPoint
 10
1098.873274594466
 20
492.5298130748241
 30
0.0
  0
POINT
  5
1616
330
117
100
AcDbEntity
  8
Defpoints
  6
Continuous
 62
     0
100
AcDbPoint
 10
1211.373274594466
 20
492.529813074824
 30
0.0
  0
ENDBLK
  5
122
330
117
100
AcDbEntity
  8
0
 48
3.0
100
AcDbBlockEnd
  0
BLOCK
  5
130
330
124
100
AcDbEntity
  8
0
 48
3.0
100
AcDbBlockBegin
  2
*D11
 70
     1
 10
0.0
 20
0.0
 30
0.0
  3
*D11
  1

  0
LINE
  5
1617
330
124
100
AcDbEntity
  8
寸法線
  6
Continuous
 62
     0
370
    -2
100
AcDbLine
 10
1118.873274594466
 20
492.5298130748241
 30
0.0
 11
1226.373274594466
 21
492.529813074824
 31
0.0
  0
LINE
  5
1618
330
124
100
AcDbEntity
  8
寸法線
  6
Continuous
 62
     0
370
    -2
100
AcDbLine
 10
1121.373274594466
 20
524.5298130748241
 30
0.0
 11
1226.373274594466
 21
524.5298130748241
 31
0.0
  0
LINE
  5
1619
330
124
100
AcDbEntity
  8
寸法線
  6
Continuous
 62
     0
370
    -2
100
AcDbLine
 10
1211.373274594466
 20
477.529813074824
 30
0.0
 11
1211.373274594466
 21
462.529813074824
 31
0.0
  0
LINE
  5
161A
330
124
100
AcDbEntity
  8
寸法線
  6
Continuous
 62
     0
370
    -2
100
AcDbLine
 10
1211.373274594466
 20
539.5298130748241
 30
0.0
 11
1211.373274594466
 21
599.7074780494433
 31
0.0
  0
LINE
  5
161B
330
124
100
AcDbEntity
  8
寸法線
  6
Continuous
 62
     0
370
    -2
100
AcDbLine
 10
1211.373274594466
 20
492.529813074824
 30
0.0
 11
1211.373274594466
 21
524.5298130748241
 31
0.0
  0
INSERT
  5
161C
330
124
100
AcDbEntity
  8
寸法線
  6
Continuous
 62
     0
370
    -2
100
AcDbBlockReference
  2
_Open30
 10
1211.373274594466
 20
492.529813074824
 30
0.0
 41
15.0
 42
15.0
 43
15.0
 50
90.0
  0
INSERT
  5
161D
330
124
100
AcDbEntity
  8
寸法線
  6
Continuous
 62
     0
370
    -2
100
AcDbBlockReference
  2
_Open30
 10
1211.373274594466
 20
524.5298130748241
 30
0.0
 41
15.0
 42
15.0
 43
15.0
 50
270.0
  0
MTEXT
  5
161E
330
124
100
AcDbEntity
  8
寸法線
  6
Continuous
 62
     0
100
AcDbMText
 10
1191.373274594466
 20
577.1186455621339
 30
0.0
 40
30.0
 41
0.0
 71
     5
 72
     1
  1
32
 11
0.0000000000000001
 21
1.0
 31
0.0
 73
     1
 44
1.0
1001
ACAD
1000
MTEXTBEGIN
1070
    73
1070
     1
1070
    44
1040
1.0
1070
    74
1070
     0
1000
MTEXTEND
  0
POINT
  5
161F
330
124
100
AcDbEntity
  8
Defpoints
  6
Continuous
 62
     0
100
AcDbPoint
 10
1098.873274594466
 20
492.5298130748241
 30
0.0
  0
POINT
  5
1620
330
124
100
AcDbEntity
  8
Defpoints
  6
Continuous
 62
     0
100
AcDbPoint
 10
1101.373274594466
 20
524.5298130748241
 30
0.0
  0
POINT
  5
1621
330
124
100
AcDbEntity
  8
Defpoints
  6
Continuous
 62
     0
100
AcDbPoint
 10
1211.373274594466
 20
524.5298130748241
 30
0.0
  0
ENDBLK
  5
131
330
124
100
AcDbEntity
  8
0
 48
3.0
100
AcDbBlockEnd
  0
BLOCK
  5
13D
330
133
100
AcDbEntity
  8
0
 48
3.0
100
AcDbBlockBegin
  2
*D12
 70
     1
 10
0.0
 20
0.0
 30
0.0
  3
*D12
  1

  0
LINE
  5
1622
330
133
100
AcDbEntity
  8
寸法線
  6
Continuous
 62
     0
370
    -2
100
AcDbLine
 10
1121.373274594466
 20
524.5298130748241
 30
0.0
 11
1306.373274594466
 21
524.5298130748239
 31
0.0
  0
LINE
  5
1623
330
133
100
AcDbEntity
  8
寸法線
  6
Continuous
 62
     0
370
    -2
100
AcDbLine
 10
1118.873274594466
 20
427.529813074824
 30
0.0
 11
1306.373274594466
 21
427.5298130748239
 31
0.0
  0
LINE
  5
1624
330
133
100
AcDbEntity
  8
寸法線
  6
Continuous
 62
     0
370
    -2
100
AcDbLine
 10
1291.373274594466
 20
509.529813074824
 30
0.0
 11
1291.373274594466
 21
442.5298130748239
 31
0.0
  0
INSERT
  5
1625
330
133
100
AcDbEntity
  8
寸法線
  6
Continuous
 62
     0
370
    -2
100
AcDbBlockReference
  2
_Open30
 10
1291.373274594466
 20
524.5298130748239
 30
0.0
 41
15.0
 42
15.0
 43
15.0
 50
90.0
  0
INSERT
  5
1626
330
133
100
AcDbEntity
  8
寸法線
  6
Continuous
 62
     0
370
    -2
100
AcDbBlockReference
  2
_Open30
 10
1291.373274594466
 20
427.5298130748239
 30
0.0
 41
15.0
 42
15.0
 43
15.0
 50
270.0
  0
MTEXT
  5
1627
330
133
100
AcDbEntity
  8
寸法線
  6
Continuous
 62
     0
100
AcDbMText
 10
1271.373274594466
 20
476.0298130748242
 30
0.0
 40
30.0
 41
0.0
 71
     5
 72
     1
  1
97
 11
0.0000000000000001
 21
1.0
 31
0.0
 73
     1
 44
1.0
1001
ACAD
1000
MTEXTBEGIN
1070
    73
1070
     1
1070
    44
1040
1.0
1070
    74
1070
     0
1000
MTEXTEND
  0
POINT
  5
1628
330
133
100
AcDbEntity
  8
Defpoints
  6
Continuous
 62
     0
100
AcDbPoint
 10
1101.373274594466
 20
524.5298130748241
 30
0.0
  0
POINT
  5
1629
330
133
100
AcDbEntity
  8
Defpoints
  6
Continuous
 62
     0
100
AcDbPoint
 10
1098.873274594466
 20
427.529813074824
 30
0.0
  0
POINT
  5
162A
330
133
100
AcDbEntity
  8
Defpoints
  6
Continuous
 62
     0
100
AcDbPoint
 10
1291.373274594466
 20
427.5298130748239
 30
0.0
  0
ENDBLK
  5
13E
330
133
100
AcDbEntity
  8
0
 48
3.0
100
AcDbBlockEnd
  0
BLOCK
  5
14A
330
140
100
AcDbEntity
  8
0
 48
3.0
100
AcDbBlockBegin
  2
*D13
 70
     1
 10
0.0
 20
0.0
 30
0.0
  3
*D13
  1

  0
LINE
  5
15AC
330
140
100
AcDbEntity
  8
寸法線
  6
Continuous
 62
     0
370
    -2
100
AcDbLine
 10
1953.265969790661
 20
1621.733417887393
 30
0.0
 11
2038.265974790661
 21
1621.733417887393
 31
0.0
  0
LINE
  5
15AD
330
140
100
AcDbEntity
  8
寸法線
  6
Continuous
 62
     0
370
    -2
100
AcDbLine
 10
1953.265969790661
 20
1111.733415887393
 30
0.0
 11
2038.265974790661
 21
1111.733415887393
 31
0.0
  0
LINE
  5
15AE
330
140
100
AcDbEntity
  8
寸法線
  6
Continuous
 62
     0
370
    -2
100
AcDbLine
 10
2023.265974790661
 20
1606.733417887393
 30
0.0
 11
2023.265974790661
 21
1126.733415887393
 31
0.0
  0
INSERT
  5
15AF
330
140
100
AcDbEntity
  8
寸法線
  6
Continuous
 62
     0
370
    -2
100
AcDbBlockReference
  2
_Open30
 10
2023.265974790661
 20
1621.733417887393
 30
0.0
 41
15.0
 42
15.0
 43
15.0
 50
90.0
  0
INSERT
  5
15B0
330
140
100
AcDbEntity
  8
寸法線
  6
Continuous
 62
     0
370
    -2
100
AcDbBlockReference
  2
_Open30
 10
2023.265974790661
 20
1111.733415887393
 30
0.0
 41
15.0
 42
15.0
 43
15.0
 50
270.0
  0
MTEXT
  5
15B1
330
140
100
AcDbEntity
  8
寸法線
  6
Continuous
 62
     0
100
AcDbMText
 10
2003.265974790661
 20
1366.733416887394
 30
0.0
 40
30.0
 41
0.0
 71
     5
 72
     1
  1
510
 11
0.0000000000000001
 21
1.0
 31
0.0
 73
     1
 44
1.0
1001
ACAD
1000
MTEXTBEGIN
1070
    73
1070
     1
1070
    44
1040
1.0
1070
    74
1070
     0
1000
MTEXTEND
  0
POINT
  5
15B2
330
140
100
AcDbEntity
  8
Defpoints
  6
Continuous
 62
     0
100
AcDbPoint
 10
1933.265969790661
 20
1621.733417887393
 30
0.0
  0
POINT
  5
15B3
330
140
100
AcDbEntity
  8
Defpoints
  6
Continuous
 62
     0
100
AcDbPoint
 10
1933.265969790661
 20
1111.733415887393
 30
0.0
  0
POINT
  5
15B4
330
140
100
AcDbEntity
  8
Defpoints
  6
Continuous
 62
     0
100
AcDbPoint
 10
2023.265974790661
 20
1111.733415887393
 30
0.0
  0
ENDBLK
  5
14B
330
140
100
AcDbEntity
  8
0
 48
3.0
100
AcDbBlockEnd
  0
BLOCK
  5
AED
330
AE3
100
AcDbEntity
  8
0
 48
3.0
100
AcDbBlockBegin
  2
*D14
 70
     1
 10
0.0
 20
0.0
 30
0.0
  3
*D14
  1

  0
LINE
  5
15A3
330
AE3
100
AcDbEntity
  8
寸法線
 62
     0
 48
3.0
370
    -2
100
AcDbLine
 10
1823.265972790661
 20
1591.733416887393
 30
0.0
 11
1751.265972790661
 21
1591.733416887393
 31
0.0
  0
LINE
  5
15A4
330
AE3
100
AcDbEntity
  8
寸法線
 62
     0
 48
3.0
370
    -2
100
AcDbLine
 10
1823.265972790661
 20
1541.733416887393
 30
0.0
 11
1751.265972790661
 21
1541.733416887393
 31
0.0
  0
LINE
  5
15A5
330
AE3
100
AcDbEntity
  8
寸法線
 62
     0
 48
3.0
370
    -2
100
AcDbLine
 10
1766.265972790661
 20
1576.733416887393
 30
0.0
 11
1766.265972790661
 21
1556.733416887393
 31
0.0
  0
INSERT
  5
15A6
330
AE3
100
AcDbEntity
  8
寸法線
 62
     0
 48
3.0
370
    -2
100
AcDbBlockReference
  2
_Open30
 10
1766.265972790661
 20
1591.733416887393
 30
0.0
 41
15.0
 42
15.0
 43
15.0
 50
90.0
  0
INSERT
  5
15A7
330
AE3
100
AcDbEntity
  8
寸法線
 62
     0
 48
3.0
370
    -2
100
AcDbBlockReference
  2
_Open30
 10
1766.265972790661
 20
1541.733416887393
 30
0.0
 41
15.0
 42
15.0
 43
15.0
 50
270.0
  0
MTEXT
  5
15A8
330
AE3
100
AcDbEntity
  8
寸法線
 62
     0
 48
3.0
100
AcDbMText
 10
1746.265972790661
 20
1566.733416887394
 30
0.0
 40
30.0
 41
0.0
 71
     5
 72
     1
  1
50
 11
0.0000000000000001
 21
1.0
 31
0.0
 73
     1
 44
1.0
1001
ACAD
1000
MTEXTBEGIN
1070
    73
1070
     1
1070
    44
1040
1.0
1070
    74
1070
     0
1000
MTEXTEND
  0
POINT
  5
15A9
330
AE3
100
AcDbEntity
  8
Defpoints
 62
     0
 48
3.0
100
AcDbPoint
 10
1843.265972790661
 20
1591.733416887393
 30
0.0
  0
POINT
  5
15AA
330
AE3
100
AcDbEntity
  8
Defpoints
 62
     0
 48
3.0
100
AcDbPoint
 10
1843.265972790661
 20
1541.733416887393
 30
0.0
  0
POINT
  5
15AB
330
AE3
100
AcDbEntity
  8
Defpoints
 62
     0
 48
3.0
100
AcDbPoint
 10
1766.265972790661
 20
1541.733416887393
 30
0.0
  0
ENDBLK
  5
AEE
330
AE3
100
AcDbEntity
  8
0
 48
3.0
100
AcDbBlockEnd
  0
BLOCK
  5
1377
330
1373
100
AcDbEntity
  8
0
 48
3.0
100
AcDbBlockBegin
  2
清水
 70
     0
 10
0.0
 20
0.0
 30
0.0
  3
清水
  1

  0
ELLIPSE
  5
1374
330
1373
100
AcDbEntity
  8
外枠
  6
Continuous
100
AcDbEllipse
 10
61.95950207238002
 20
-84.98104152054944
 30
0.0
 11
0.0
 21
-48.07578326062735
 31
0.0
210
0.0
220
0.0
230
1.0
 40
0.7999999999999857
 41
0.0
 42
6.283185307179586
  0
MTEXT
  5
1375
330
1373
100
AcDbEntity
  8
外枠
  6
Continuous
100
AcDbMText
 10
43.62136371980841
 20
-91.25020745848743
 30
0.0
 40
25.0
 41
38.0342
 71
     1
 72
     5
  1
{\fHG正楷書体-PRO|b0|i0|c128|p65;水}
 73
     1
 44
1.0
1001
ACAD
1000
MTEXTBEGIN
1070
    73
1070
     1
1070
    44
1040
1.0
1070
    74
1070
     0
1000
MTEXTEND
  0
MTEXT
  5
1376
330
1373
100
AcDbEntity
  8
外枠
  6
Continuous
100
AcDbMText
 10
44.0164673811646
 20
-47.73028505679667
 30
0.0
 40
25.0
 41
37.8613
 71
     1
 72
     5
  1
{\fHG正楷書体-PRO|b0|i0|c128|p65;清}
 73
     1
 44
1.0
1001
ACAD
1000
MTEXTBEGIN
1070
    73
1070
     1
1070
    44
1040
1.0
1070
    74
1070
     0
1000
MTEXTEND
  0
ENDBLK
  5
1378
330
1373
100
AcDbEntity
  8
0
 48
3.0
100
AcDbBlockEnd
  0
BLOCK
  5
1474
330
1472
100
AcDbEntity
  8
0
 48
3.0
100
AcDbBlockBegin
  2
鎌下
 70
     0
 10
0.0
 20
0.0
 30
0.0
  3
鎌下
  1

  0
MTEXT
  5
1475
330
1472
100
AcDbEntity
  8
外枠
  6
Continuous
100
AcDbMText
 10
40.55333581259037
 20
-88.14888116777728
 30
0.0
 40
28.17460800000001
 41
43.8527
 71
     1
 72
     5
  1
{\fHGSeikaishotaiPRO|b0|i0|c128|p65;下}
 73
     1
 44
1.0
1001
ACAD
1000
MTEXTBEGIN
1070
    73
1070
     1
1070
    44
1040
1.0
1070
    74
1070
     0
1000
MTEXTEND
  0
MTEXT
  5
1476
330
1472
100
AcDbEntity
  8
外枠
  6
Continuous
100
AcDbMText
 10
40.55333581259037
 20
-45.61885629864991
 30
0.0
 40
28.17460800000001
 41
43.8527
 71
     1
 72
     5
  1
{\fHGSeikaishotaiPRO|b0|i0|c128|p65;鎌}
 73
     1
 44
1.0
1001
ACAD
1000
MTEXTBEGIN
1070
    73
1070
     1
1070
    44
1040
1.0
1070
    74
1070
     0
1000
MTEXTEND
  0
ELLIPSE
  5
1477
330
1472
100
AcDbEntity
  8
外枠
  6
Continuous
100
AcDbEllipse
 10
61.68068686355036
 20
-84.59863033186412
 30
0.0
 11
0.0
 21
-47.8594442149426
 31
0.0
210
0.0
220
0.0
230
1.0
 40
0.7999999999999857
 41
0.0
 42
6.283185307179586
  0
ENDBLK
  5
1478
330
1472
100
AcDbEntity
  8
0
 48
3.0
100
AcDbBlockEnd
  0
BLOCK
  5
153A
330
1530
100
AcDbEntity
  8
0
 48
3.0
100
AcDbBlockBegin
  2
P-H60
 70
     0
 10
0.0
 20
0.0
 30
0.0
  3
P-H60
  1

  0
LINE
  5
1531
330
1530
100
AcDbEntity
  8
嵩上断面
100
AcDbLine
 10
2.999997
 20
0.000001
 30
0.0
 11
56.999997
 21
0.000001
 31
0.0
  0
LINE
  5
1532
330
1530
100
AcDbEntity
  8
嵩上断面
100
AcDbLine
 10
-0.000003
 20
-2.999999
 30
0.0
 11
-0.000003
 21
-36.999999
 31
0.0
  0
LINE
  5
1533
330
1530
100
AcDbEntity
  8
嵩上断面
100
AcDbLine
 10
2.999997
 20
-39.999999
 30
0.0
 11
56.999997
 21
-39.999999
 31
0.0
  0
ARC
  5
1534
330
1530
100
AcDbEntity
  8
嵩上断面
100
AcDbCircle
 10
2.999997
 20
-36.999999
 30
0.0
 40
3.0
100
AcDbArc
 50
180.0
 51
270.0
  0
ARC
  5
1535
330
1530
100
AcDbEntity
  8
嵩上断面
100
AcDbCircle
 10
2.999997
 20
-2.999999
 30
0.0
 40
3.0
100
AcDbArc
 50
90.0
 51
180.0
  0
LINE
  5
1536
330
1530
100
AcDbEntity
  8
嵩上断面
100
AcDbLine
 10
59.999997
 20
-36.999999
 30
0.0
 11
59.999997
 21
-2.999999
 31
0.0
  0
ARC
  5
1537
330
1530
100
AcDbEntity
  8
嵩上断面
100
AcDbCircle
 10
56.999997
 20
-2.999999
 30
0.0
 40
3.0
100
AcDbArc
 50
0.0
 51
90.0
  0
ARC
  5
1538
330
1530
100
AcDbEntity
  8
嵩上断面
100
AcDbCircle
 10
56.999997
 20
-36.999999
 30
0.0
 40
3.0
100
AcDbArc
 50
270.0
 51
0.0
  0
LWPOLYLINE
  5
1539
330
1530
100
AcDbEntity
  8
嵩上断面
  6
Continuous
100
AcDbPolyline
 90
        4
 70
     1
 43
0.0
 10
2.299996999999999
 20
-37.69999900000001
 10
57.699997
 20
-37.69999900000001
 10
57.699997
 20
-2.299998999999999
 10
2.299996999999999
 20
-2.299998999999999
  0
ENDBLK
  5
153B
330
1530
100
AcDbEntity
  8
0
 48
3.0
100
AcDbBlockEnd
  0
BLOCK
  5
1722
330
1721
100
AcDbEntity
  8
0
 48
3.0
100
AcDbBlockBegin
  2
*U28
 70
     1
 10
0.0
 20
0.0
 30
0.0
  3
*U28
  1

  0
LINE
  5
1728
330
1721
100
AcDbEntity
  8
本体
  6
Continuous
100
AcDbLine
 10
-14.5
 20
16.0
 30
0.0
 11
10.5
 21
16.0
 31
0.0
  0
LINE
  5
1729
330
1721
100
AcDbEntity
  8
本体
  6
Continuous
100
AcDbLine
 10
-14.5
 20
10.0
 30
0.0
 11
10.5
 21
10.0
 31
0.0
  0
LINE
  5
172A
330
1721
100
AcDbEntity
  8
本体
  6
Continuous
100
AcDbLine
 10
-14.5
 20
10.0
 30
0.0
 11
10.5
 21
16.0
 31
0.0
  0
LINE
  5
172B
330
1721
100
AcDbEntity
  8
本体
100
AcDbLine
 10
10.5
 20
16.0
 30
0.0
 11
15.5
 21
16.0
 31
0.0
  0
LINE
  5
172C
330
1721
100
AcDbEntity
  8
本体
100
AcDbLine
 10
15.5
 20
16.0
 30
0.0
 11
15.5
 21
10.0
 31
0.0
  0
LINE
  5
172D
330
1721
100
AcDbEntity
  8
本体
100
AcDbLine
 10
15.5
 20
10.0
 30
0.0
 11
14.5
 21
9.0
 31
0.0
  0
LINE
  5
172E
330
1721
100
AcDbEntity
  8
本体
100
AcDbLine
 10
10.5
 20
16.0
 30
0.0
 11
10.5
 21
10.0
 31
0.0
  0
LINE
  5
172F
330
1721
100
AcDbEntity
  8
本体
100
AcDbLine
 10
10.5
 20
10.0
 30
0.0
 11
11.5
 21
9.0
 31
0.0
  0
LINE
  5
1730
330
1721
100
AcDbEntity
  8
本体
100
AcDbLine
 10
10.5
 20
-16.0
 30
0.0
 11
15.5
 21
-16.0
 31
0.0
  0
LINE
  5
1731
330
1721
100
AcDbEntity
  8
本体
100
AcDbLine
 10
15.5
 20
-16.0
 30
0.0
 11
15.5
 21
-10.0
 31
0.0
  0
LINE
  5
1732
330
1721
100
AcDbEntity
  8
本体
100
AcDbLine
 10
15.5
 20
-10.0
 30
0.0
 11
14.5
 21
-9.0
 31
0.0
  0
LINE
  5
1733
330
1721
100
AcDbEntity
  8
本体
100
AcDbLine
 10
10.5
 20
-16.0
 30
0.0
 11
10.5
 21
-10.0
 31
0.0
  0
LINE
  5
1734
330
1721
100
AcDbEntity
  8
本体
100
AcDbLine
 10
10.5
 20
-10.0
 30
0.0
 11
11.5
 21
-9.0
 31
0.0
  0
LINE
  5
1735
330
1721
100
AcDbEntity
  8
本体
100
AcDbLine
 10
11.5
 20
9.0
 30
0.0
 11
11.5
 21
-9.0
 31
0.0
  0
LINE
  5
1736
330
1721
100
AcDbEntity
  8
本体
100
AcDbLine
 10
14.5
 20
9.0
 30
0.0
 11
14.5
 21
-9.0
 31
0.0
  0
LINE
  5
1737
330
1721
100
AcDbEntity
  8
本体
100
AcDbLine
 10
10.5
 20
16.0
 30
0.0
 11
15.5
 21
16.0
 31
0.0
  0
LINE
  5
1738
330
1721
100
AcDbEntity
  8
本体
100
AcDbLine
 10
15.5
 20
16.0
 30
0.0
 11
15.5
 21
10.0
 31
0.0
  0
LINE
  5
1739
330
1721
100
AcDbEntity
  8
本体
100
AcDbLine
 10
15.5
 20
10.0
 30
0.0
 11
14.5
 21
9.0
 31
0.0
  0
LINE
  5
173A
330
1721
100
AcDbEntity
  8
本体
100
AcDbLine
 10
10.5
 20
16.0
 30
0.0
 11
10.5
 21
10.0
 31
0.0
  0
LINE
  5
173B
330
1721
100
AcDbEntity
  8
本体
100
AcDbLine
 10
10.5
 20
10.0
 30
0.0
 11
11.5
 21
9.0
 31
0.0
  0
LINE
  5
173C
330
1721
100
AcDbEntity
  8
本体
100
AcDbLine
 10
10.5
 20
-16.0
 30
0.0
 11
15.5
 21
-16.0
 31
0.0
  0
LINE
  5
173D
330
1721
100
AcDbEntity
  8
本体
100
AcDbLine
 10
15.5
 20
-16.0
 30
0.0
 11
15.5
 21
-10.0
 31
0.0
  0
LINE
  5
173E
330
1721
100
AcDbEntity
  8
本体
100
AcDbLine
 10
15.5
 20
-10.0
 30
0.0
 11
14.5
 21
-9.0
 31
0.0
  0
LINE
  5
173F
330
1721
100
AcDbEntity
  8
本体
100
AcDbLine
 10
10.5
 20
-16.0
 30
0.0
 11
10.5
 21
-10.0
 31
0.0
  0
LINE
  5
1740
330
1721
100
AcDbEntity
  8
本体
100
AcDbLine
 10
10.5
 20
-10.0
 30
0.0
 11
11.5
 21
-9.0
 31
0.0
  0
LINE
  5
1741
330
1721
100
AcDbEntity
  8
本体
100
AcDbLine
 10
11.5
 20
9.0
 30
0.0
 11
11.5
 21
-9.0
 31
0.0
  0
LINE
  5
1742
330
1721
100
AcDbEntity
  8
本体
100
AcDbLine
 10
14.5
 20
9.0
 30
0.0
 11
14.5
 21
-9.0
 31
0.0
  0
LINE
  5
1743
330
1721
100
AcDbEntity
  8
本体
100
AcDbLine
 10
10.5
 20
16.0
 30
0.0
 11
15.5
 21
16.0
 31
0.0
  0
LINE
  5
1744
330
1721
100
AcDbEntity
  8
本体
100
AcDbLine
 10
15.5
 20
16.0
 30
0.0
 11
15.5
 21
10.0
 31
0.0
  0
LINE
  5
1745
330
1721
100
AcDbEntity
  8
本体
100
AcDbLine
 10
15.5
 20
10.0
 30
0.0
 11
14.5
 21
9.0
 31
0.0
  0
LINE
  5
1746
330
1721
100
AcDbEntity
  8
本体
100
AcDbLine
 10
10.5
 20
16.0
 30
0.0
 11
10.5
 21
10.0
 31
0.0
  0
LINE
  5
1747
330
1721
100
AcDbEntity
  8
本体
100
AcDbLine
 10
10.5
 20
10.0
 30
0.0
 11
11.5
 21
9.0
 31
0.0
  0
LINE
  5
1748
330
1721
100
AcDbEntity
  8
本体
100
AcDbLine
 10
10.5
 20
-16.0
 30
0.0
 11
15.5
 21
-16.0
 31
0.0
  0
LINE
  5
1749
330
1721
100
AcDbEntity
  8
本体
100
AcDbLine
 10
15.5
 20
-16.0
 30
0.0
 11
15.5
 21
-10.0
 31
0.0
  0
LINE
  5
174A
330
1721
100
AcDbEntity
  8
本体
100
AcDbLine
 10
15.5
 20
-10.0
 30
0.0
 11
14.5
 21
-9.0
 31
0.0
  0
LINE
  5
174B
330
1721
100
AcDbEntity
  8
本体
100
AcDbLine
 10
10.5
 20
-16.0
 30
0.0
 11
10.5
 21
-10.0
 31
0.0
  0
LINE
  5
174C
330
1721
100
AcDbEntity
  8
本体
100
AcDbLine
 10
10.5
 20
-10.0
 30
0.0
 11
11.5
 21
-9.0
 31
0.0
  0
LINE
  5
174D
330
1721
100
AcDbEntity
  8
本体
100
AcDbLine
 10
11.5
 20
9.0
 30
0.0
 11
11.5
 21
-9.0
 31
0.0
  0
LINE
  5
174E
330
1721
100
AcDbEntity
  8
本体
100
AcDbLine
 10
14.5
 20
9.0
 30
0.0
 11
14.5
 21
-9.0
 31
0.0
  0
LINE
  5
174F
330
1721
100
AcDbEntity
  8
本体
  6
Continuous
100
AcDbLine
 10
-15.5
 20
-9.0
 30
0.0
 11
11.5
 21
-9.0
 31
0.0
  0
ENDBLK
  5
1723
330
1721
100
AcDbEntity
  8
0
 48
3.0
100
AcDbBlockEnd
  0
BLOCK
  5
1725
330
1724
100
AcDbEntity
  8
0
 48
3.0
100
AcDbBlockBegin
  2
*U29
 70
     1
 10
0.0
 20
0.0
 30
0.0
  3
*U29
  1

  0
INSERT
  5
175E
330
1724
100
AcDbEntity
  8
本体
  6
ByBlock
 62
     0
370
    -2
380
     1
100
AcDbBlockReference
  2
*U28
 10
0.0
 20
0.0
 30
0.0
  0
INSERT
  5
175F
330
1724
100
AcDbEntity
  8
本体
  6
ByBlock
 62
     0
370
    -2
380
     1
100
AcDbBlockReference
  2
*U28
 10
30.0
 20
0.0
 30
0.0
  0
INSERT
  5
1760
330
1724
100
AcDbEntity
  8
本体
  6
ByBlock
 62
     0
370
    -2
380
     1
100
AcDbBlockReference
  2
*U28
 10
60.0
 20
0.0
 30
0.0
  0
INSERT
  5
1761
330
1724
100
AcDbEntity
  8
本体
  6
ByBlock
 62
     0
370
    -2
380
     1
100
AcDbBlockReference
  2
*U28
 10
90.0
 20
0.0
 30
0.0
  0
INSERT
  5
1762
330
1724
100
AcDbEntity
  8
本体
  6
ByBlock
 62
     0
370
    -2
380
     1
100
AcDbBlockReference
  2
*U28
 10
120.0
 20
0.0
 30
0.0
  0
INSERT
  5
1763
330
1724
100
AcDbEntity
  8
本体
  6
ByBlock
 62
     0
370
    -2
380
     1
100
AcDbBlockReference
  2
*U28
 10
150.0
 20
0.0
 30
0.0
  0
INSERT
  5
1764
330
1724
100
AcDbEntity
  8
本体
  6
ByBlock
 62
     0
370
    -2
380
     1
100
AcDbBlockReference
  2
*U28
 10
180.0
 20
0.0
 30
0.0
  0
INSERT
  5
1765
330
1724
100
AcDbEntity
  8
本体
  6
ByBlock
 62
     0
370
    -2
380
     1
100
AcDbBlockReference
  2
*U28
 10
210.0
 20
0.0
 30
0.0
  0
INSERT
  5
1766
330
1724
100
AcDbEntity
  8
本体
  6
ByBlock
 62
     0
370
    -2
380
     1
100
AcDbBlockReference
  2
*U28
 10
240.0
 20
0.0
 30
0.0
  0
INSERT
  5
1767
330
1724
100
AcDbEntity
  8
本体
  6
ByBlock
 62
     0
370
    -2
380
     1
100
AcDbBlockReference
  2
*U28
 10
270.0
 20
0.0
 30
0.0
  0
INSERT
  5
1768
330
1724
100
AcDbEntity
  8
本体
  6
ByBlock
 62
     0
370
    -2
380
     1
100
AcDbBlockReference
  2
*U28
 10
300.0
 20
0.0
 30
0.0
  0
INSERT
  5
1769
330
1724
100
AcDbEntity
  8
本体
  6
ByBlock
 62
     0
370
    -2
380
     1
100
AcDbBlockReference
  2
*U28
 10
330.0
 20
0.0
 30
0.0
  0
INSERT
  5
176A
330
1724
100
AcDbEntity
  8
本体
  6
ByBlock
 62
     0
370
    -2
380
     1
100
AcDbBlockReference
  2
*U28
 10
360.0
 20
0.0
 30
0.0
  0
INSERT
  5
176B
330
1724
100
AcDbEntity
  8
本体
  6
ByBlock
 62
     0
370
    -2
380
     1
100
AcDbBlockReference
  2
*U28
 10
390.0
 20
0.0
 30
0.0
  0
INSERT
  5
176C
330
1724
100
AcDbEntity
  8
本体
  6
ByBlock
 62
     0
370
    -2
380
     1
100
AcDbBlockReference
  2
*U28
 10
420.0
 20
0.0
 30
0.0
  0
INSERT
  5
176D
330
1724
100
AcDbEntity
  8
本体
  6
ByBlock
 62
     0
370
    -2
380
     1
100
AcDbBlockReference
  2
*U28
 10
450.0
 20
0.0
 30
0.0
  0
ENDBLK
  5
1726
330
1724
100
AcDbEntity
  8
0
 48
3.0
100
AcDbBlockEnd
  0
BLOCK
  5
1770
330
176F
100
AcDbEntity
  8
0
 48
3.0
100
AcDbBlockBegin
  2
*U30
 70
     1
 10
0.0
 20
0.0
 30
0.0
  3
*U30
  1

  0
LINE
  5
1776
330
176F
100
AcDbEntity
  8
本体
  6
Continuous
100
AcDbLine
 10
17.5
 20
260.5
 30
0.0
 11
17.5
 21
228.0
 31
0.0
  0
LINE
  5
1777
330
176F
100
AcDbEntity
  8
本体
  6
Continuous
100
AcDbLine
 10
12.5
 20
260.5
 30
0.0
 11
12.5
 21
228.0
 31
0.0
  0
LINE
  5
1778
330
176F
100
AcDbEntity
  8
エンボス
  6
Continuous
100
AcDbLine
 10
17.5
 20
248.864094
 30
0.0
 11
12.5
 21
250.864094
 31
0.0
  0
LINE
  5
1779
330
176F
100
AcDbEntity
  8
エンボス
  6
Continuous
100
AcDbLine
 10
12.5
 20
253.864094
 30
0.0
 11
17.5
 21
255.864094
 31
0.0
  0
LINE
  5
177A
330
176F
100
AcDbEntity
  8
エンボス
  6
Continuous
100
AcDbLine
 10
12.5
 20
241.864094
 30
0.0
 11
17.5
 21
239.864094
 31
0.0
  0
LINE
  5
177B
330
176F
100
AcDbEntity
  8
エンボス
  6
Continuous
100
AcDbLine
 10
17.5
 20
236.864094
 30
0.0
 11
12.5
 21
234.864094
 31
0.0
  0
LINE
  5
177C
330
176F
100
AcDbEntity
  8
本体
  6
Continuous
100
AcDbLine
 10
17.5
 20
222.0
 30
0.0
 11
17.5
 21
178.0
 31
0.0
  0
LINE
  5
177D
330
176F
100
AcDbEntity
  8
本体
  6
Continuous
100
AcDbLine
 10
12.5
 20
222.0
 30
0.0
 11
12.5
 21
178.0
 31
0.0
  0
LINE
  5
177E
330
176F
100
AcDbEntity
  8
エンボス
  6
Continuous
100
AcDbLine
 10
17.5
 20
179.0
 30
0.0
 11
12.5
 21
181.0
 31
0.0
  0
LINE
  5
177F
330
176F
100
AcDbEntity
  8
エンボス
  6
Continuous
100
AcDbLine
 10
12.5
 20
184.0
 30
0.0
 11
17.5
 21
186.0
 31
0.0
  0
LINE
  5
1780
330
176F
100
AcDbEntity
  8
エンボス
  6
Continuous
100
AcDbLine
 10
17.5
 20
195.0
 30
0.0
 11
12.5
 21
193.0
 31
0.0
  0
LINE
  5
1781
330
176F
100
AcDbEntity
  8
エンボス
  6
Continuous
100
AcDbLine
 10
12.5
 20
200.0
 30
0.0
 11
17.5
 21
198.0
 31
0.0
  0
LINE
  5
1782
330
176F
100
AcDbEntity
  8
エンボス
  6
Continuous
100
AcDbLine
 10
12.5
 20
212.0
 30
0.0
 11
17.5
 21
214.0
 31
0.0
  0
LINE
  5
1783
330
176F
100
AcDbEntity
  8
エンボス
  6
Continuous
100
AcDbLine
 10
17.5
 20
207.0
 30
0.0
 11
12.5
 21
209.0
 31
0.0
  0
LINE
  5
1784
330
176F
100
AcDbEntity
  8
エンボス
  6
Continuous
100
AcDbLine
 10
17.5
 20
-236.864094
 30
0.0
 11
12.5
 21
-234.864094
 31
0.0
  0
LINE
  5
1785
330
176F
100
AcDbEntity
  8
エンボス
  6
Continuous
100
AcDbLine
 10
12.5
 20
-241.864094
 30
0.0
 11
17.5
 21
-239.864094
 31
0.0
  0
LINE
  5
1786
330
176F
100
AcDbEntity
  8
エンボス
  6
Continuous
100
AcDbLine
 10
12.5
 20
-253.864094
 30
0.0
 11
17.5
 21
-255.864094
 31
0.0
  0
LINE
  5
1787
330
176F
100
AcDbEntity
  8
エンボス
  6
Continuous
100
AcDbLine
 10
17.5
 20
-248.864094
 30
0.0
 11
12.5
 21
-250.864094
 31
0.0
  0
LINE
  5
1788
330
176F
100
AcDbEntity
  8
本体
  6
Continuous
100
AcDbLine
 10
-17.5
 20
222.0000000000002
 30
0.0
 11
12.5
 21
228.0
 31
0.0
  0
LINE
  5
1789
330
176F
100
AcDbEntity
  8
本体
  6
Continuous
100
AcDbLine
 10
17.5
 20
-260.5
 30
0.0
 11
17.5
 21
-228.0
 31
0.0
  0
LINE
  5
178A
330
176F
100
AcDbEntity
  8
本体
  6
Continuous
100
AcDbLine
 10
12.5
 20
-260.5
 30
0.0
 11
12.5
 21
-228.0
 31
0.0
  0
LINE
  5
178B
330
176F
100
AcDbEntity
  8
本体
  6
Continuous
100
AcDbLine
 10
-17.5
 20
172.0000000000002
 30
0.0
 11
12.5
 21
178.0
 31
0.0
  0
LINE
  5
178C
330
176F
100
AcDbEntity
  8
本体
  6
Continuous
100
AcDbLine
 10
12.5
 20
172.0
 30
0.0
 11
12.5
 21
128.0
 31
0.0
  0
LINE
  5
178D
330
176F
100
AcDbEntity
  8
本体
  6
Continuous
100
AcDbLine
 10
17.5
 20
172.0
 30
0.0
 11
17.5
 21
128.0
 31
0.0
  0
LINE
  5
178E
330
176F
100
AcDbEntity
  8
エンボス
  6
Continuous
100
AcDbLine
 10
12.5
 20
150.0
 30
0.0
 11
17.5
 21
148.0
 31
0.0
  0
LINE
  5
178F
330
176F
100
AcDbEntity
  8
エンボス
  6
Continuous
100
AcDbLine
 10
17.5
 20
145.0
 30
0.0
 11
12.5
 21
143.0
 31
0.0
  0
LINE
  5
1790
330
176F
100
AcDbEntity
  8
エンボス
  6
Continuous
100
AcDbLine
 10
17.5
 20
129.0
 30
0.0
 11
12.5
 21
131.0
 31
0.0
  0
LINE
  5
1791
330
176F
100
AcDbEntity
  8
エンボス
  6
Continuous
100
AcDbLine
 10
12.5
 20
134.0
 30
0.0
 11
17.5
 21
136.0
 31
0.0
  0
LINE
  5
1792
330
176F
100
AcDbEntity
  8
エンボス
  6
Continuous
100
AcDbLine
 10
12.5
 20
162.0
 30
0.0
 11
17.5
 21
164.0
 31
0.0
  0
LINE
  5
1793
330
176F
100
AcDbEntity
  8
エンボス
  6
Continuous
100
AcDbLine
 10
17.5
 20
157.0
 30
0.0
 11
12.5
 21
159.0
 31
0.0
  0
LINE
  5
1794
330
176F
100
AcDbEntity
  8
本体
  6
Continuous
100
AcDbLine
 10
-17.5
 20
122.0000000000002
 30
0.0
 11
12.5
 21
128.0
 31
0.0
  0
LINE
  5
1795
330
176F
100
AcDbEntity
  8
本体
  6
Continuous
100
AcDbLine
 10
12.5
 20
122.0
 30
0.0
 11
12.5
 21
78.0
 31
0.0
  0
LINE
  5
1796
330
176F
100
AcDbEntity
  8
本体
  6
Continuous
100
AcDbLine
 10
17.5
 20
122.0
 30
0.0
 11
17.5
 21
78.0
 31
0.0
  0
LINE
  5
1797
330
176F
100
AcDbEntity
  8
エンボス
  6
Continuous
100
AcDbLine
 10
12.5
 20
100.0
 30
0.0
 11
17.5
 21
98.0
 31
0.0
  0
LINE
  5
1798
330
176F
100
AcDbEntity
  8
エンボス
  6
Continuous
100
AcDbLine
 10
17.5
 20
95.0
 30
0.0
 11
12.5
 21
93.0
 31
0.0
  0
LINE
  5
1799
330
176F
100
AcDbEntity
  8
エンボス
  6
Continuous
100
AcDbLine
 10
17.5
 20
79.0
 30
0.0
 11
12.5
 21
81.0
 31
0.0
  0
LINE
  5
179A
330
176F
100
AcDbEntity
  8
エンボス
  6
Continuous
100
AcDbLine
 10
12.5
 20
84.0
 30
0.0
 11
17.5
 21
86.0
 31
0.0
  0
LINE
  5
179B
330
176F
100
AcDbEntity
  8
エンボス
  6
Continuous
100
AcDbLine
 10
12.5
 20
112.0
 30
0.0
 11
17.5
 21
114.0
 31
0.0
  0
LINE
  5
179C
330
176F
100
AcDbEntity
  8
エンボス
  6
Continuous
100
AcDbLine
 10
17.5
 20
107.0
 30
0.0
 11
12.5
 21
109.0
 31
0.0
  0
LINE
  5
179D
330
176F
100
AcDbEntity
  8
本体
  6
Continuous
100
AcDbLine
 10
-17.5
 20
72.00000000000023
 30
0.0
 11
12.5
 21
78.0
 31
0.0
  0
LINE
  5
179E
330
176F
100
AcDbEntity
  8
本体
  6
Continuous
100
AcDbLine
 10
12.5
 20
72.0
 30
0.0
 11
12.5
 21
28.0
 31
0.0
  0
LINE
  5
179F
330
176F
100
AcDbEntity
  8
本体
  6
Continuous
100
AcDbLine
 10
17.5
 20
72.0
 30
0.0
 11
17.5
 21
28.0
 31
0.0
  0
LINE
  5
17A0
330
176F
100
AcDbEntity
  8
エンボス
  6
Continuous
100
AcDbLine
 10
12.5
 20
50.0
 30
0.0
 11
17.5
 21
48.0
 31
0.0
  0
LINE
  5
17A1
330
176F
100
AcDbEntity
  8
エンボス
  6
Continuous
100
AcDbLine
 10
17.5
 20
45.0
 30
0.0
 11
12.5
 21
43.0
 31
0.0
  0
LINE
  5
17A2
330
176F
100
AcDbEntity
  8
エンボス
  6
Continuous
100
AcDbLine
 10
17.5
 20
29.0
 30
0.0
 11
12.5
 21
31.0
 31
0.0
  0
LINE
  5
17A3
330
176F
100
AcDbEntity
  8
エンボス
  6
Continuous
100
AcDbLine
 10
12.5
 20
34.0
 30
0.0
 11
17.5
 21
36.0
 31
0.0
  0
LINE
  5
17A4
330
176F
100
AcDbEntity
  8
エンボス
  6
Continuous
100
AcDbLine
 10
12.5
 20
62.0
 30
0.0
 11
17.5
 21
64.0
 31
0.0
  0
LINE
  5
17A5
330
176F
100
AcDbEntity
  8
エンボス
  6
Continuous
100
AcDbLine
 10
17.5
 20
57.0
 30
0.0
 11
12.5
 21
59.0
 31
0.0
  0
LINE
  5
17A6
330
176F
100
AcDbEntity
  8
本体
  6
Continuous
100
AcDbLine
 10
-17.5
 20
22.00000000000023
 30
0.0
 11
12.5
 21
28.0
 31
0.0
  0
LINE
  5
17A7
330
176F
100
AcDbEntity
  8
本体
  6
Continuous
100
AcDbLine
 10
12.5
 20
22.0
 30
0.0
 11
12.5
 21
-22.0
 31
0.0
  0
LINE
  5
17A8
330
176F
100
AcDbEntity
  8
本体
  6
Continuous
100
AcDbLine
 10
17.5
 20
22.0
 30
0.0
 11
17.5
 21
-22.0
 31
0.0
  0
LINE
  5
17A9
330
176F
100
AcDbEntity
  8
エンボス
  6
Continuous
100
AcDbLine
 10
12.5
 20
0.0
 30
0.0
 11
17.5
 21
-2.0
 31
0.0
  0
LINE
  5
17AA
330
176F
100
AcDbEntity
  8
エンボス
  6
Continuous
100
AcDbLine
 10
17.5
 20
-5.0
 30
0.0
 11
12.5
 21
-7.0
 31
0.0
  0
LINE
  5
17AB
330
176F
100
AcDbEntity
  8
エンボス
  6
Continuous
100
AcDbLine
 10
17.5
 20
-21.0
 30
0.0
 11
12.5
 21
-19.0
 31
0.0
  0
LINE
  5
17AC
330
176F
100
AcDbEntity
  8
エンボス
  6
Continuous
100
AcDbLine
 10
12.5
 20
-16.0
 30
0.0
 11
17.5
 21
-14.0
 31
0.0
  0
LINE
  5
17AD
330
176F
100
AcDbEntity
  8
エンボス
  6
Continuous
100
AcDbLine
 10
12.5
 20
12.0
 30
0.0
 11
17.5
 21
14.0
 31
0.0
  0
LINE
  5
17AE
330
176F
100
AcDbEntity
  8
エンボス
  6
Continuous
100
AcDbLine
 10
17.5
 20
7.0
 30
0.0
 11
12.5
 21
9.0
 31
0.0
  0
LINE
  5
17AF
330
176F
100
AcDbEntity
  8
本体
  6
Continuous
100
AcDbLine
 10
-17.5
 20
-27.99999999999978
 30
0.0
 11
12.5
 21
-22.0
 31
0.0
  0
LINE
  5
17B0
330
176F
100
AcDbEntity
  8
本体
  6
Continuous
100
AcDbLine
 10
12.5
 20
-28.0
 30
0.0
 11
12.5
 21
-72.0
 31
0.0
  0
LINE
  5
17B1
330
176F
100
AcDbEntity
  8
本体
  6
Continuous
100
AcDbLine
 10
17.5
 20
-28.0
 30
0.0
 11
17.5
 21
-72.0
 31
0.0
  0
LINE
  5
17B2
330
176F
100
AcDbEntity
  8
エンボス
  6
Continuous
100
AcDbLine
 10
12.5
 20
-50.0
 30
0.0
 11
17.5
 21
-52.0
 31
0.0
  0
LINE
  5
17B3
330
176F
100
AcDbEntity
  8
エンボス
  6
Continuous
100
AcDbLine
 10
17.5
 20
-55.0
 30
0.0
 11
12.5
 21
-57.0
 31
0.0
  0
LINE
  5
17B4
330
176F
100
AcDbEntity
  8
エンボス
  6
Continuous
100
AcDbLine
 10
17.5
 20
-71.0
 30
0.0
 11
12.5
 21
-69.0
 31
0.0
  0
LINE
  5
17B5
330
176F
100
AcDbEntity
  8
エンボス
  6
Continuous
100
AcDbLine
 10
12.5
 20
-66.0
 30
0.0
 11
17.5
 21
-64.0
 31
0.0
  0
LINE
  5
17B6
330
176F
100
AcDbEntity
  8
エンボス
  6
Continuous
100
AcDbLine
 10
12.5
 20
-38.0
 30
0.0
 11
17.5
 21
-36.0
 31
0.0
  0
LINE
  5
17B7
330
176F
100
AcDbEntity
  8
エンボス
  6
Continuous
100
AcDbLine
 10
17.5
 20
-43.0
 30
0.0
 11
12.5
 21
-41.0
 31
0.0
  0
LINE
  5
17B8
330
176F
100
AcDbEntity
  8
本体
  6
Continuous
100
AcDbLine
 10
-17.5
 20
-77.99999999999977
 30
0.0
 11
12.5
 21
-72.0
 31
0.0
  0
LINE
  5
17B9
330
176F
100
AcDbEntity
  8
本体
  6
Continuous
100
AcDbLine
 10
12.5
 20
-78.0
 30
0.0
 11
12.5
 21
-122.0
 31
0.0
  0
LINE
  5
17BA
330
176F
100
AcDbEntity
  8
本体
  6
Continuous
100
AcDbLine
 10
17.5
 20
-78.0
 30
0.0
 11
17.5
 21
-122.0
 31
0.0
  0
LINE
  5
17BB
330
176F
100
AcDbEntity
  8
エンボス
  6
Continuous
100
AcDbLine
 10
12.5
 20
-100.0
 30
0.0
 11
17.5
 21
-102.0
 31
0.0
  0
LINE
  5
17BC
330
176F
100
AcDbEntity
  8
エンボス
  6
Continuous
100
AcDbLine
 10
17.5
 20
-105.0
 30
0.0
 11
12.5
 21
-107.0
 31
0.0
  0
LINE
  5
17BD
330
176F
100
AcDbEntity
  8
エンボス
  6
Continuous
100
AcDbLine
 10
17.5
 20
-121.0
 30
0.0
 11
12.5
 21
-119.0
 31
0.0
  0
LINE
  5
17BE
330
176F
100
AcDbEntity
  8
エンボス
  6
Continuous
100
AcDbLine
 10
12.5
 20
-116.0
 30
0.0
 11
17.5
 21
-114.0
 31
0.0
  0
LINE
  5
17BF
330
176F
100
AcDbEntity
  8
エンボス
  6
Continuous
100
AcDbLine
 10
12.5
 20
-88.0
 30
0.0
 11
17.5
 21
-86.0
 31
0.0
  0
LINE
  5
17C0
330
176F
100
AcDbEntity
  8
エンボス
  6
Continuous
100
AcDbLine
 10
17.5
 20
-93.0
 30
0.0
 11
12.5
 21
-91.0
 31
0.0
  0
LINE
  5
17C1
330
176F
100
AcDbEntity
  8
本体
  6
Continuous
100
AcDbLine
 10
-17.5
 20
-127.9999999999998
 30
0.0
 11
12.5
 21
-122.0
 31
0.0
  0
LINE
  5
17C2
330
176F
100
AcDbEntity
  8
本体
  6
Continuous
100
AcDbLine
 10
12.5
 20
-128.0
 30
0.0
 11
12.5
 21
-172.0
 31
0.0
  0
LINE
  5
17C3
330
176F
100
AcDbEntity
  8
本体
  6
Continuous
100
AcDbLine
 10
17.5
 20
-128.0
 30
0.0
 11
17.5
 21
-172.0
 31
0.0
  0
LINE
  5
17C4
330
176F
100
AcDbEntity
  8
エンボス
  6
Continuous
100
AcDbLine
 10
12.5
 20
-150.0
 30
0.0
 11
17.5
 21
-152.0
 31
0.0
  0
LINE
  5
17C5
330
176F
100
AcDbEntity
  8
エンボス
  6
Continuous
100
AcDbLine
 10
17.5
 20
-155.0
 30
0.0
 11
12.5
 21
-157.0
 31
0.0
  0
LINE
  5
17C6
330
176F
100
AcDbEntity
  8
エンボス
  6
Continuous
100
AcDbLine
 10
17.5
 20
-171.0
 30
0.0
 11
12.5
 21
-169.0
 31
0.0
  0
LINE
  5
17C7
330
176F
100
AcDbEntity
  8
エンボス
  6
Continuous
100
AcDbLine
 10
12.5
 20
-166.0
 30
0.0
 11
17.5
 21
-164.0
 31
0.0
  0
LINE
  5
17C8
330
176F
100
AcDbEntity
  8
エンボス
  6
Continuous
100
AcDbLine
 10
12.5
 20
-138.0
 30
0.0
 11
17.5
 21
-136.0
 31
0.0
  0
LINE
  5
17C9
330
176F
100
AcDbEntity
  8
エンボス
  6
Continuous
100
AcDbLine
 10
17.5
 20
-143.0
 30
0.0
 11
12.5
 21
-141.0
 31
0.0
  0
LINE
  5
17CA
330
176F
100
AcDbEntity
  8
本体
  6
Continuous
100
AcDbLine
 10
-17.5
 20
-177.9999999999998
 30
0.0
 11
12.5
 21
-172.0
 31
0.0
  0
LINE
  5
17CB
330
176F
100
AcDbEntity
  8
本体
  6
Continuous
100
AcDbLine
 10
12.5
 20
-178.0
 30
0.0
 11
12.5
 21
-222.0
 31
0.0
  0
LINE
  5
17CC
330
176F
100
AcDbEntity
  8
本体
  6
Continuous
100
AcDbLine
 10
17.5
 20
-178.0
 30
0.0
 11
17.5
 21
-222.0
 31
0.0
  0
LINE
  5
17CD
330
176F
100
AcDbEntity
  8
エンボス
  6
Continuous
100
AcDbLine
 10
12.5
 20
-200.0
 30
0.0
 11
17.5
 21
-202.0
 31
0.0
  0
LINE
  5
17CE
330
176F
100
AcDbEntity
  8
エンボス
  6
Continuous
100
AcDbLine
 10
17.5
 20
-205.0
 30
0.0
 11
12.5
 21
-207.0
 31
0.0
  0
LINE
  5
17CF
330
176F
100
AcDbEntity
  8
エンボス
  6
Continuous
100
AcDbLine
 10
17.5
 20
-221.0
 30
0.0
 11
12.5
 21
-219.0
 31
0.0
  0
LINE
  5
17D0
330
176F
100
AcDbEntity
  8
エンボス
  6
Continuous
100
AcDbLine
 10
12.5
 20
-216.0
 30
0.0
 11
17.5
 21
-214.0
 31
0.0
  0
LINE
  5
17D1
330
176F
100
AcDbEntity
  8
エンボス
  6
Continuous
100
AcDbLine
 10
12.5
 20
-188.0
 30
0.0
 11
17.5
 21
-186.0
 31
0.0
  0
LINE
  5
17D2
330
176F
100
AcDbEntity
  8
エンボス
  6
Continuous
100
AcDbLine
 10
17.5
 20
-193.0
 30
0.0
 11
12.5
 21
-191.0
 31
0.0
  0
LINE
  5
17D3
330
176F
100
AcDbEntity
  8
本体
  6
Continuous
100
AcDbLine
 10
-17.5
 20
-227.9999999999998
 30
0.0
 11
12.5
 21
-222.0
 31
0.0
  0
LINE
  5
17D4
330
176F
100
AcDbEntity
  8
エンボス
  6
Continuous
100
AcDbLine
 10
17.5
 20
-221.0
 30
0.0
 11
12.5
 21
-219.0
 31
0.0
  0
ENDBLK
  5
1771
330
176F
100
AcDbEntity
  8
0
 48
3.0
100
AcDbBlockEnd
  0
BLOCK
  5
1773
330
1772
100
AcDbEntity
  8
0
 48
3.0
100
AcDbBlockBegin
  2
*U31
 70
     1
 10
0.0
 20
0.0
 30
0.0
  3
*U31
  1

  0
INSERT
  5
17DF
330
1772
100
AcDbEntity
  8
本体
  6
ByBlock
 62
     0
370
    -2
380
     1
100
AcDbBlockReference
  2
*U30
 10
0.0
 20
0.0
 30
0.0
  0
INSERT
  5
17E0
330
1772
100
AcDbEntity
  8
本体
  6
ByBlock
 62
     0
370
    -2
380
     1
100
AcDbBlockReference
  2
*U30
 10
30.0
 20
0.0
 30
0.0
  0
INSERT
  5
17E1
330
1772
100
AcDbEntity
  8
本体
  6
ByBlock
 62
     0
370
    -2
380
     1
100
AcDbBlockReference
  2
*U30
 10
60.0
 20
0.0
 30
0.0
  0
INSERT
  5
17E2
330
1772
100
AcDbEntity
  8
本体
  6
ByBlock
 62
     0
370
    -2
380
     1
100
AcDbBlockReference
  2
*U30
 10
90.0
 20
0.0
 30
0.0
  0
INSERT
  5
17E3
330
1772
100
AcDbEntity
  8
本体
  6
ByBlock
 62
     0
370
    -2
380
     1
100
AcDbBlockReference
  2
*U30
 10
120.0
 20
0.0
 30
0.0
  0
INSERT
  5
17E4
330
1772
100
AcDbEntity
  8
本体
  6
ByBlock
 62
     0
370
    -2
380
     1
100
AcDbBlockReference
  2
*U30
 10
150.0
 20
0.0
 30
0.0
  0
INSERT
  5
17E5
330
1772
100
AcDbEntity
  8
本体
  6
ByBlock
 62
     0
370
    -2
380
     1
100
AcDbBlockReference
  2
*U30
 10
180.0
 20
0.0
 30
0.0
  0
INSERT
  5
17E6
330
1772
100
AcDbEntity
  8
本体
  6
ByBlock
 62
     0
370
    -2
380
     1
100
AcDbBlockReference
  2
*U30
 10
210.0
 20
0.0
 30
0.0
  0
INSERT
  5
17E7
330
1772
100
AcDbEntity
  8
本体
  6
ByBlock
 62
     0
370
    -2
380
     1
100
AcDbBlockReference
  2
*U30
 10
240.0
 20
0.0
 30
0.0
  0
INSERT
  5
17E8
330
1772
100
AcDbEntity
  8
本体
  6
ByBlock
 62
     0
370
    -2
380
     1
100
AcDbBlockReference
  2
*U30
 10
270.0
 20
0.0
 30
0.0
  0
INSERT
  5
17E9
330
1772
100
AcDbEntity
  8
本体
  6
ByBlock
 62
     0
370
    -2
380
     1
100
AcDbBlockReference
  2
*U30
 10
300.0
 20
0.0
 30
0.0
  0
INSERT
  5
17EA
330
1772
100
AcDbEntity
  8
本体
  6
ByBlock
 62
     0
370
    -2
380
     1
100
AcDbBlockReference
  2
*U30
 10
330.0
 20
0.0
 30
0.0
  0
INSERT
  5
17EB
330
1772
100
AcDbEntity
  8
本体
  6
ByBlock
 62
     0
370
    -2
380
     1
100
AcDbBlockReference
  2
*U30
 10
360.0
 20
0.0
 30
0.0
  0
INSERT
  5
17EC
330
1772
100
AcDbEntity
  8
本体
  6
ByBlock
 62
     0
370
    -2
380
     1
100
AcDbBlockReference
  2
*U30
 10
390.0
 20
0.0
 30
0.0
  0
INSERT
  5
17ED
330
1772
100
AcDbEntity
  8
本体
  6
ByBlock
 62
     0
370
    -2
380
     1
100
AcDbBlockReference
  2
*U30
 10
420.0
 20
0.0
 30
0.0
  0
INSERT
  5
17EE
330
1772
100
AcDbEntity
  8
本体
  6
ByBlock
 62
     0
370
    -2
380
     1
100
AcDbBlockReference
  2
*U30
 10
450.0
 20
0.0
 30
0.0
  0
ENDBLK
  5
1774
330
1772
100
AcDbEntity
  8
0
 48
3.0
100
AcDbBlockEnd
  0
ENDSEC
  0
SECTION
  2
ENTITIES
  0
LINE
  5
12
330
2
100
AcDbEntity
  8
外枠
 48
80.0
370
     9
100
AcDbLine
 10
0.0
 20
0.0
 30
0.0
 11
2789.511161023067
 21
0.0
 31
0.0
  0
LINE
  5
13
330
2
100
AcDbEntity
  8
外枠
 48
80.0
370
     9
100
AcDbLine
 10
2789.511161023071
 20
1973.26911249564
 30
0.0
 11
0.0
 21
1973.26911249564
 31
0.0
  0
LINE
  5
14
330
2
100
AcDbEntity
  8
外枠
 48
100.0
370
     9
100
AcDbLine
 10
10.0
 20
10.0
 30
0.0
 11
2780.119625023061
 21
10.0
 31
0.0
  0
LINE
  5
17
330
2
100
AcDbEntity
  8
外枠
  6
Continuous
 48
100.0
370
     9
100
AcDbLine
 10
9.999999999996362
 20
155.3992728208031
 30
0.0
 11
2780.119625023061
 21
155.3992728207995
 31
0.0
  0
LINE
  5
18
330
2
100
AcDbEntity
  8
外枠
  6
Continuous
 48
100.0
370
     9
100
AcDbLine
 10
9.999999999996362
 20
160.0950408208045
 30
0.0
 11
2780.119625023061
 21
160.0950408207973
 31
0.0
  0
LINE
  5
19
330
2
100
AcDbEntity
  8
外枠
 48
100.0
370
     9
100
AcDbLine
 10
10.0
 20
1963.877576495633
 30
0.0
 11
2780.119625023053
 21
1963.877576495637
 31
0.0
  0
LINE
  5
1A
330
2
100
AcDbEntity
  8
外枠
 48
80.0
370
     9
100
AcDbLine
 10
0.0
 20
0.0
 30
0.0
 11
0.0
 21
1973.26911249564
 31
0.0
  0
LINE
  5
1B
330
2
100
AcDbEntity
  8
外枠
 48
100.0
370
     9
100
AcDbLine
 10
10.0
 20
1963.877576495633
 30
0.0
 11
10.0
 21
10.0
 31
0.0
  0
LINE
  5
1C
330
2
100
AcDbEntity
  8
外枠
  6
Continuous
 48
100.0
370
     9
100
AcDbLine
 10
10.0
 20
82.69963641040158
 30
0.0
 11
1153.530108552004
 21
82.69963641039794
 31
0.0
  0
MTEXT
  5
1E
330
2
100
AcDbEntity
  8
外枠
  6
Continuous
 48
100.0
370
     9
100
AcDbMText
 10
246.8574963386418
 20
64.81814764649607
 30
0.0
 40
35.0
 41
532.9183
 71
     1
 72
     5
  1
530\U+00D7500\U+00D732/97
 73
     1
 44
1.0
1001
ACAD
1000
MTEXTBEGIN
1070
    73
1070
     1
1070
    44
1040
1.0
1070
    74
1070
     0
1000
MTEXTEND
  0
MTEXT
  5
1F
330
2
100
AcDbEntity
  8
外枠
  6
Continuous
 48
100.0
370
     9
100
AcDbMText
 10
76.61659604009765
 20
137.3760680266387
 30
0.0
 40
30.0
 41
126.3036
 71
     1
 72
     5
  1
T-2
 73
     1
 44
1.0
1001
ACAD
1000
MTEXTBEGIN
1070
    73
1070
     1
1070
    44
1040
1.0
1070
    74
1070
     0
1000
MTEXTEND
  0
MTEXT
  5
20
330
2
100
AcDbEntity
  8
外枠
  6
Continuous
 48
100.0
370
     9
100
AcDbMText
 10
82.93258377064921
 20
59.95966632915224
 30
0.0
 40
35.0
 41
88.86979999999999
 71
     1
 72
     5
  1
TFKP
 73
     1
 44
1.0
1001
ACAD
1000
MTEXTBEGIN
1070
    73
1070
     1
1070
    44
1040
1.0
1070
    74
1070
     0
1000
MTEXTEND
  0
LINE
  5
21
330
2
100
AcDbEntity
  8
外枠
 48
100.0
370
     9
100
AcDbLine
 10
45.0
 20
155.3992728208031
 30
0.0
 11
45.0
 21
10.0
 31
0.0
  0
MTEXT
  5
22
330
2
100
AcDbEntity
  8
外枠
  6
Continuous
 48
100.0
370
     9
100
AcDbMText
 10
15.05670849094895
 20
75.82038473524153
 30
0.0
 40
20.0
 41
23.52947333656417
 71
     1
 72
     5
  1
品\P番
 73
     1
 44
1.0
1001
ACAD
1000
MTEXTBEGIN
1070
    73
1070
     1
1070
    44
1040
1.0
1070
    74
1070
     0
1000
MTEXTEND
  0
MTEXT
  5
23
330
2
100
AcDbEntity
  8
外枠
  6
Continuous
 48
100.0
370
     9
100
AcDbMText
 10
14.92010060012399
 20
149.3317229429121
 30
0.0
 40
20.0
 41
30.07989939987533
 71
     1
 72
     5
  1
荷\P重
 73
     1
 44
1.0
1001
ACAD
1000
MTEXTBEGIN
1070
    73
1070
     1
1070
    44
1040
1.0
1070
    74
1070
     0
1000
MTEXTEND
  0
LINE
  5
24
330
2
100
AcDbEntity
  8
外枠
 48
100.0
370
     9
100
AcDbLine
 10
179.1040495562847
 20
155.3992728208031
 30
0.0
 11
179.1040495562847
 21
10.0
 31
0.0
  0
MTEXT
  5
25
330
2
100
AcDbEntity
  8
外枠
  6
Continuous
 48
100.0
370
     9
100
AcDbMText
 10
271.7517807368968
 20
133.8572910967996
 30
0.0
 40
30.0
 41
271.6208
 71
     1
 72
     5
  1
400用
 73
     1
 44
1.0
1001
ACAD
1000
MTEXTBEGIN
1070
    73
1070
     1
1070
    44
1040
1.0
1070
    74
1070
     0
1000
MTEXTEND
  0
MTEXT
  5
26
330
2
100
AcDbEntity
  8
外枠
  6
Continuous
 48
100.0
370
     9
100
AcDbMText
 10
184.4346535744698
 20
149.3074501239389
 30
0.0
 40
20.0
 41
29.6694
 71
     1
 72
     5
  1
溝幅
 73
     1
 44
1.0
1001
ACAD
1000
MTEXTBEGIN
1070
    73
1070
     1
1070
    44
1040
1.0
1070
    74
1070
     0
1000
MTEXTEND
  0
LINE
  5
27
330
2
100
AcDbEntity
  8
外枠
 48
100.0
370
     9
100
AcDbLine
 10
214.1040495562847
 20
155.3992728208031
 30
0.0
 11
214.1040495562847
 21
82.69963641040158
 31
0.0
  0
MTEXT
  5
28
330
2
100
AcDbEntity
  8
外枠
  6
Continuous
 48
100.0
370
     9
100
AcDbMText
 10
477.8955451146976
 20
149.3074501239389
 30
0.0
 40
20.0
 41
29.6694
 71
     1
 72
     5
  1
品名
 73
     1
 44
1.0
1001
ACAD
1000
MTEXTBEGIN
1070
    73
1070
     1
1070
    44
1040
1.0
1070
    74
1070
     0
1000
MTEXTEND
  0
LINE
  5
29
330
2
100
AcDbEntity
  8
外枠
 48
100.0
370
     9
100
AcDbLine
 10
472.5649410965124
 20
155.3992728208031
 30
0.0
 11
472.5649410965124
 21
82.69963641040158
 31
0.0
  0
LINE
  5
2A
330
2
100
AcDbEntity
  8
外枠
 48
100.0
370
     9
100
AcDbLine
 10
507.5649410965125
 20
155.3992728208031
 30
0.0
 11
507.5649410965125
 21
82.69963641040158
 31
0.0
  0
MTEXT
  5
2B
330
2
100
AcDbEntity
  8
外枠
  6
Continuous
 48
100.0
370
     9
100
AcDbMText
 10
728.477887653953
 20
76.92551173516403
 30
0.0
 40
20.0
 41
664.6118999999999
 71
     1
 72
     5
  1
摘\P要
 73
     1
 44
1.0
1001
ACAD
1000
MTEXTBEGIN
1070
    73
1070
     1
1070
    44
1040
1.0
1070
    74
1070
     0
1000
MTEXTEND
  0
LINE
  5
2C
330
2
100
AcDbEntity
  8
外枠
 48
100.0
370
     9
100
AcDbLine
 10
723.8282373115871
 20
82.6996364103943
 30
0.0
 11
723.8282373115871
 21
9.999999999992724
 31
0.0
  0
LINE
  5
2F
330
2
100
AcDbEntity
  8
外枠
 48
100.0
370
     9
100
AcDbLine
 10
758.8282373115871
 20
82.6996364103943
 30
0.0
 11
758.8282373115871
 21
9.999999999992724
 31
0.0
  0
LINE
  5
31
330
2
100
AcDbEntity
  8
外枠
 48
100.0
370
     9
100
AcDbLine
 10
974.9513069700951
 20
82.6996364103943
 30
0.0
 11
974.9513069700951
 21
9.999999999992724
 31
0.0
  0
MTEXT
  5
32
330
2
100
AcDbEntity
  8
外枠
  6
Continuous
 48
100.0
370
     9
100
AcDbMText
 10
979.7329598959768
 20
74.84825461820583
 30
0.0
 40
20.0
 41
31.38947761565365
 71
     1
 72
     5
  1
材\P質
 73
     1
 44
1.0
1001
ACAD
1000
MTEXTBEGIN
1070
    73
1070
     1
1070
    44
1040
1.0
1070
    74
1070
     0
1000
MTEXTEND
  0
LINE
  5
33
330
2
100
AcDbEntity
  8
外枠
 48
100.0
370
     9
100
AcDbLine
 10
1009.951306970095
 20
82.6996364103943
 30
0.0
 11
1009.951306970095
 21
9.999999999992724
 31
0.0
  0
LINE
  5
37
330
2
100
AcDbEntity
  8
外枠
 48
80.0
370
     9
100
AcDbLine
 10
2789.511161023067
 20
0.0
 30
0.0
 11
2789.511161023071
 21
1973.26911249564
 31
0.0
  0
LINE
  5
38
330
2
100
AcDbEntity
  8
外枠
 48
100.0
370
     9
100
AcDbLine
 10
2780.119625023053
 20
1963.877576495637
 30
0.0
 11
2780.119625023061
 21
10.0
 31
0.0
  0
LINE
  5
3A
330
2
100
AcDbEntity
  8
外枠
 48
3.0
100
AcDbLine
 10
1607.072254912545
 20
61.67068719952067
 30
0.0
 11
2262.173600934632
 21
61.67068719952067
 31
0.0
  0
MTEXT
  5
3B
330
2
100
AcDbEntity
  8
外枠
  6
Continuous
 48
100.0
370
     9
100
AcDbMText
 10
1683.622173868318
 20
50.71504764095289
 30
0.0
 40
30.00024
 41
539.4827578564582
 71
     1
 72
     5
  1
T A K A R A   G R A T I N G
 73
     1
 44
1.0
1001
ACAD
1000
MTEXTBEGIN
1070
    73
1070
     1
1070
    44
1040
1.0
1070
    74
1070
     0
1000
MTEXTEND
  0
MTEXT
  5
3C
330
2
100
AcDbEntity
  8
外枠
  6
Continuous
 48
100.0
370
     9
100
AcDbMText
 10
1728.02061463669
 20
127.1672938476838
 30
0.0
 40
30.0
 41
282.8297
 71
     1
 72
     5
  1
株 式 会 社
 73
     1
 44
1.0
1001
ACAD
1000
MTEXTBEGIN
1070
    73
1070
     1
1070
    44
1040
1.0
1070
    74
1070
     0
1000
MTEXTEND
  0
LINE
  5
3D
330
2
100
AcDbEntity
  8
外枠
  6
Continuous
 48
100.0
370
     9
100
AcDbLine
 10
1508.680137877982
 20
155.3992728208068
 30
0.0
 11
1508.680137877982
 21
10.00000000000364
 31
0.0
  0
LINE
  5
3E
330
2
100
AcDbEntity
  8
外枠
  6
Continuous
 48
100.0
370
     9
100
AcDbLine
 10
1593.95141853916
 20
155.3992728207995
 30
0.0
 11
1593.95141853916
 21
9.999999999996362
 31
0.0
  0
LINE
  5
3F
330
2
100
AcDbEntity
  8
外枠
  6
Continuous
 48
100.0
370
     9
100
AcDbLine
 10
1616.777813337499
 20
106.634063069062
 30
0.0
 11
1612.463999974505
 21
110.08511375945
 31
0.0
  0
LINE
  5
40
330
2
100
AcDbEntity
  8
外枠
  6
Continuous
 48
100.0
370
     9
100
AcDbLine
 10
1616.777813337499
 20
106.634063069062
 30
0.0
 11
1612.463999974505
 21
103.183012378663
 31
0.0
  0
LINE
  5
41
330
2
100
AcDbEntity
  8
外枠
  6
Continuous
 48
100.0
370
     9
100
AcDbLine
 10
1616.777813337505
 20
113.5361644498489
 30
0.0
 11
1612.463999974505
 21
110.08511375945
 31
0.0
  0
LINE
  5
42
330
2
100
AcDbEntity
  8
外枠
  6
Continuous
 48
100.0
370
     9
100
AcDbLine
 10
1616.777813337499
 20
99.73196168827508
 30
0.0
 11
1612.463999974505
 21
103.183012378663
 31
0.0
  0
MTEXT
  5
43
330
2
100
AcDbEntity
  8
外枠
  6
Continuous
 48
100.0
370
     9
100
AcDbMText
 10
1520.476936402745
 20
137.4995509975779
 30
0.0
 40
20.0
 41
1015.1375
 71
     1
 72
     5
  1
14.8
 73
     1
 44
1.0
1001
ACAD
1000
MTEXTBEGIN
1070
    73
1070
     1
1070
    44
1040
1.0
1070
    74
1070
     0
1000
MTEXTEND
  0
MTEXT
  5
44
330
2
100
AcDbEntity
  8
外枠
  6
Continuous
 48
100.0
370
     9
100
AcDbMText
 10
1568.464698185987
 20
108.4136993179927
 30
0.0
 40
18.0
 41
25.456
 71
     1
 72
     5
  1
kg
 73
     1
 44
1.0
1001
ACAD
1000
MTEXTBEGIN
1070
    73
1070
     1
1070
    44
1040
1.0
1070
    74
1070
     0
1000
MTEXTEND
  0
LINE
  5
45
330
2
100
AcDbEntity
  8
外枠
  6
Continuous
 48
100.0
370
     9
100
AcDbLine
 10
1649.122643507042
 20
139.4120285854742
 30
0.0
 11
1653.436456870031
 21
135.9609778950862
 31
0.0
  0
LINE
  5
46
330
2
100
AcDbEntity
  8
外枠
  6
Continuous
 48
100.0
370
     9
100
AcDbLine
 10
1666.377896959009
 20
139.4120285854742
 30
0.0
 11
1662.06408359602
 21
135.9609778950862
 31
0.0
  0
MTEXT
  5
47
330
2
100
AcDbEntity
  8
外枠
  6
Continuous
 48
100.0
370
     9
100
AcDbMText
 10
1642.840555134189
 20
120.8184913847756
 30
0.0
 40
23.95393639053264
 41
23.85059431815661
 71
     1
 72
     5
  1
{\fＭＳ ゴシック|b0|i0|c128|p49;宝}
 73
     1
 44
1.0
1001
ACAD
1000
MTEXTBEGIN
1070
    73
1070
     1
1070
    44
1040
1.0
1070
    74
1070
     0
1000
MTEXTEND
  0
LINE
  5
48
330
2
100
AcDbEntity
  8
外枠
  6
Continuous
 48
100.0
370
     9
100
AcDbLine
 10
1662.06408359602
 20
135.9609778950862
 30
0.0
 11
1694.408913765557
 21
110.08511375945
 31
0.0
  0
LINE
  5
49
330
2
100
AcDbEntity
  8
外枠
  6
Continuous
 48
100.0
370
     9
100
AcDbLine
 10
1657.750270233026
 20
132.5099272046927
 30
0.0
 11
1690.095100402563
 21
106.634063069062
 31
0.0
  0
LINE
  5
4A
330
2
100
AcDbEntity
  8
外枠
  6
Continuous
 48
100.0
370
     9
100
AcDbLine
 10
1690.095100402563
 20
106.634063069062
 30
0.0
 11
1657.750270233026
 21
80.75819893343123
 31
0.0
  0
LINE
  5
4B
330
2
100
AcDbEntity
  8
外枠
  6
Continuous
 48
100.0
370
     9
100
AcDbLine
 10
1694.408913765557
 20
103.183012378663
 30
0.0
 11
1662.06408359602
 21
77.30714824303777
 31
0.0
  0
LINE
  5
4C
330
2
100
AcDbEntity
  8
外枠
  6
Continuous
 48
100.0
370
     9
100
AcDbLine
 10
1657.750270233026
 20
80.75819893342577
 30
0.0
 11
1625.405440063488
 21
106.634063069062
 31
0.0
  0
LINE
  5
4D
330
2
100
AcDbEntity
  8
外枠
  6
Continuous
 48
100.0
370
     9
100
AcDbLine
 10
1653.436456870031
 20
77.30714824303777
 30
0.0
 11
1621.0916267005
 21
103.183012378663
 31
0.0
  0
LINE
  5
4E
330
2
100
AcDbEntity
  8
外枠
  6
Continuous
 48
100.0
370
     9
100
AcDbLine
 10
1621.0916267005
 20
103.183012378663
 30
0.0
 11
1616.777813337505
 21
99.73196168827508
 31
0.0
  0
LINE
  5
4F
330
2
100
AcDbEntity
  8
外枠
  6
Continuous
 48
100.0
370
     9
100
AcDbLine
 10
1653.436456870031
 20
77.30714824303777
 30
0.0
 11
1649.122643507042
 21
73.85609755263885
 31
0.0
  0
LINE
  5
50
330
2
100
AcDbEntity
  8
外枠
  6
Continuous
 48
100.0
370
     9
100
AcDbLine
 10
1653.436456870031
 20
70.4050468622454
 30
0.0
 11
1649.122643507042
 21
73.85609755263885
 31
0.0
  0
LINE
  5
51
330
2
100
AcDbEntity
  8
外枠
  6
Continuous
 48
100.0
370
     9
100
AcDbLine
 10
1657.750270233026
 20
73.85609755263885
 30
0.0
 11
1653.436456870031
 21
70.4050468622454
 31
0.0
  0
LINE
  5
52
330
2
100
AcDbEntity
  8
外枠
  6
Continuous
 48
100.0
370
     9
100
AcDbLine
 10
1666.377896959009
 20
73.85609755263885
 30
0.0
 11
1662.06408359602
 21
70.4050468622454
 31
0.0
  0
LINE
  5
53
330
2
100
AcDbEntity
  8
外枠
  6
Continuous
 48
100.0
370
     9
100
AcDbLine
 10
1662.06408359602
 20
70.4050468622454
 30
0.0
 11
1657.750270233026
 21
73.85609755263885
 31
0.0
  0
LINE
  5
54
330
2
100
AcDbEntity
  8
外枠
  6
Continuous
 48
100.0
370
     9
100
AcDbLine
 10
1666.377896959009
 20
73.85609755263885
 30
0.0
 11
1662.06408359602
 21
77.30714824303777
 31
0.0
  0
LINE
  5
55
330
2
100
AcDbEntity
  8
外枠
  6
Continuous
 48
100.0
370
     9
100
AcDbLine
 10
1657.750270233026
 20
132.5099272046927
 30
0.0
 11
1625.405440063483
 21
106.634063069062
 31
0.0
  0
LINE
  5
56
330
2
100
AcDbEntity
  8
外枠
  6
Continuous
 48
100.0
370
     9
100
AcDbLine
 10
1653.436456870031
 20
135.9609778950862
 30
0.0
 11
1621.0916267005
 21
110.08511375945
 31
0.0
  0
LINE
  5
57
330
2
100
AcDbEntity
  8
外枠
  6
Continuous
 48
100.0
370
     9
100
AcDbLine
 10
1621.0916267005
 20
110.08511375945
 30
0.0
 11
1616.777813337505
 21
113.5361644498489
 31
0.0
  0
LINE
  5
58
330
2
100
AcDbEntity
  8
外枠
  6
Continuous
 48
100.0
370
     9
100
AcDbLine
 10
1694.408913765557
 20
103.183012378663
 30
0.0
 11
1698.722727128541
 21
99.73196168827508
 31
0.0
  0
LINE
  5
59
330
2
100
AcDbEntity
  8
外枠
  6
Continuous
 48
100.0
370
     9
100
AcDbLine
 10
1703.036540491541
 20
103.183012378663
 30
0.0
 11
1698.722727128541
 21
99.73196168827508
 31
0.0
  0
LINE
  5
5A
330
2
100
AcDbEntity
  8
外枠
  6
Continuous
 48
100.0
370
     9
100
AcDbLine
 10
1698.722727128541
 20
113.5361644498489
 30
0.0
 11
1694.408913765557
 21
110.08511375945
 31
0.0
  0
LINE
  5
5B
330
2
100
AcDbEntity
  8
外枠
  6
Continuous
 48
100.0
370
     9
100
AcDbLine
 10
1698.722727128541
 20
106.634063069062
 30
0.0
 11
1703.036540491541
 21
103.183012378663
 31
0.0
  0
LINE
  5
5C
330
2
100
AcDbEntity
  8
外枠
  6
Continuous
 48
100.0
370
     9
100
AcDbLine
 10
1698.722727128541
 20
113.5361644498489
 30
0.0
 11
1703.036540491541
 21
110.08511375945
 31
0.0
  0
LINE
  5
5D
330
2
100
AcDbEntity
  8
外枠
  6
Continuous
 48
100.0
370
     9
100
AcDbLine
 10
1703.036540491541
 20
110.08511375945
 30
0.0
 11
1698.722727128541
 21
106.634063069062
 31
0.0
  0
LINE
  5
5E
330
2
100
AcDbEntity
  8
外枠
  6
Continuous
 48
100.0
370
     9
100
AcDbLine
 10
1653.436456870031
 20
142.8630792758676
 30
0.0
 11
1649.122643507042
 21
139.4120285854742
 31
0.0
  0
LINE
  5
5F
330
2
100
AcDbEntity
  8
外枠
  6
Continuous
 48
100.0
370
     9
100
AcDbLine
 10
1662.06408359602
 20
142.8630792758676
 30
0.0
 11
1666.377896959009
 21
139.4120285854742
 31
0.0
  0
LINE
  5
60
330
2
100
AcDbEntity
  8
外枠
  6
Continuous
 48
100.0
370
     9
100
AcDbLine
 10
1653.436456870031
 20
142.8630792758676
 30
0.0
 11
1657.750270233026
 21
139.4120285854742
 31
0.0
  0
LINE
  5
61
330
2
100
AcDbEntity
  8
外枠
  6
Continuous
 48
100.0
370
     9
100
AcDbLine
 10
1662.06408359602
 20
142.8630792758676
 30
0.0
 11
1657.750270233026
 21
139.4120285854742
 31
0.0
  0
MTEXT
  5
62
330
2
100
AcDbEntity
  8
外枠
  6
Continuous
 48
100.0
370
     9
100
AcDbMText
 10
1982.246612759803
 20
141.5312822365363
 30
0.0
 40
50.0
 41
269.1378
 71
     1
 72
     5
  1
宝 機 材
 73
     1
 44
1.0
1001
ACAD
1000
MTEXTBEGIN
1070
    73
1070
     1
1070
    44
1040
1.0
1070
    74
1070
     0
1000
MTEXTEND
  0
INSERT
  5
63
330
2
100
AcDbEntity
  8
0
100
AcDbBlockReference
  2
GIB詳細
 10
2565.418449883758
 20
297.722523113778
 30
0.0
  0
LINE
  5
AB
330
2
100
AcDbEntity
  8
外枠
  6
Continuous
 48
100.0
370
     9
100
AcDbLine
 10
2694.775480668144
 20
78.59726492113622
 30
0.0
 11
2729.639779322774
 21
43.73296626650699
 31
0.0
  0
LINE
  5
AC
330
2
100
AcDbEntity
  8
外枠
  6
Continuous
 48
100.0
370
     9
100
AcDbLine
 10
2729.639779322774
 20
113.4615635757691
 30
0.0
 11
2694.775480668144
 21
78.59726492113622
 31
0.0
  0
LINE
  5
AE
330
2
100
AcDbEntity
  8
外枠
  6
Continuous
 48
100.0
370
     9
100
AcDbLine
 10
2271.730765417811
 20
155.3992728207995
 30
0.0
 11
2271.730765417811
 21
10.0
 31
0.0
  0
LINE
  5
AF
330
2
100
AcDbEntity
  8
外枠
  6
Continuous
 48
100.0
370
     9
100
AcDbLine
 10
2387.385592047314
 20
155.3992728207995
 30
0.0
 11
2387.385592047314
 21
9.999999999996362
 31
0.0
  0
MTEXT
  5
B0
330
2
100
AcDbEntity
  8
外枠
  6
Continuous
 48
100.0
370
     9
100
AcDbMText
 10
2518.897970034654
 20
80.52451510381798
 30
0.0
 40
16.435188
 41
274.138099993296
 71
     1
 72
     5
  1
縮尺（A4用紙)
 73
     1
 44
1.0
1001
ACAD
1000
MTEXTBEGIN
1070
    73
1070
     1
1070
    44
1040
1.0
1070
    74
1070
     0
1000
MTEXTEND
  0
LINE
  5
B1
330
2
100
AcDbEntity
  8
外枠
  6
Continuous
 48
100.0
370
     9
100
AcDbLine
 10
2503.04041867681
 20
155.3992728207995
 30
0.0
 11
2503.04041867681
 21
9.999999999996362
 31
0.0
  0
LINE
  5
B2
330
2
100
AcDbEntity
  8
外枠
  6
Continuous
 48
100.0
370
     9
100
AcDbLine
 10
2676.662359028593
 20
155.3992728207995
 30
0.0
 11
2676.662359028593
 21
10.0
 31
0.0
  0
MTEXT
  5
B3
330
2
100
AcDbEntity
  8
外枠
  6
Continuous
 48
100.0
370
     9
100
AcDbMText
 10
2557.587330290393
 20
42.24161905183791
 30
0.0
 40
23.47884
 41
274.138099993296
 71
     1
 72
     5
  1
1：10
 73
     1
 44
1.0
1001
ACAD
1000
MTEXTBEGIN
1070
    73
1070
     1
1070
    44
1040
1.0
1070
    74
1070
     0
1000
MTEXTEND
  0
MTEXT
  5
B4
330
2
100
AcDbEntity
  8
外枠
  6
Continuous
 48
100.0
370
     9
100
AcDbMText
 10
2280.290404386422
 20
149.5129012429788
 30
0.0
 40
18.783072
 41
274.13809060176
 71
     1
 72
     5
  1
Check
 73
     1
 44
1.0
1001
ACAD
1000
MTEXTBEGIN
1070
    73
1070
     1
1070
    44
1040
1.0
1070
    74
1070
     0
1000
MTEXTEND
  0
MTEXT
  5
B5
330
2
100
AcDbEntity
  8
外枠
  6
Continuous
 48
100.0
370
     9
100
AcDbMText
 10
2398.03460165154
 20
149.5129012429788
 30
0.0
 40
18.783072
 41
274.13809060176
 71
     1
 72
     5
  1
Draw
 73
     1
 44
1.0
1001
ACAD
1000
MTEXTBEGIN
1070
    73
1070
     1
1070
    44
1040
1.0
1070
    74
1070
     0
1000
MTEXTEND
  0
LINE
  5
B7
330
2
100
AcDbEntity
  8
外枠
  6
Continuous
 48
100.0
370
     9
100
AcDbLine
 10
2676.662359028593
 20
85.04752041039683
 30
0.0
 11
2503.04041867681
 21
85.04752041039683
 31
0.0
  0
MTEXT
  5
B8
330
2
100
AcDbEntity
  8
外枠
  6
Continuous
 48
100.0
370
     9
100
AcDbMText
 10
2518.897970034654
 20
153.7304166203976
 30
0.0
 40
16.435188
 41
274.138099993296
 71
     1
 72
     5
  1
図面作成日
 73
     1
 44
1.0
1001
ACAD
1000
MTEXTBEGIN
1070
    73
1070
     1
1070
    44
1040
1.0
1070
    74
1070
     0
1000
MTEXTEND
  0
LINE
  5
BA
330
2
100
AcDbEntity
  8
外枠
  6
Continuous
 48
100.0
370
     9
100
AcDbLine
 10
2729.639779322774
 20
43.73296626650699
 30
0.0
 11
2764.504077977396
 21
78.59726492113622
 31
0.0
  0
LINE
  5
BB
330
2
100
AcDbEntity
  8
外枠
  6
Continuous
 48
100.0
370
     9
100
AcDbLine
 10
2764.504077977396
 20
78.59726492113622
 30
0.0
 11
2729.639779322774
 21
113.4615635757691
 31
0.0
  0
LINE
  5
C5
330
2
100
AcDbEntity
  8
嵩上断面
  6
Continuous
100
AcDbLine
 10
1098.873274594466
 20
432.5298130748239
 30
0.0
 11
603.8732745944662
 21
432.5298130748241
 31
0.0
  0
LINE
  5
C6
330
2
100
AcDbEntity
  8
嵩上断面
  6
Continuous
100
AcDbLine
 10
603.8732745944662
 20
432.5298130748241
 30
0.0
 11
603.8732745944662
 21
492.5298130748241
 31
0.0
  0
LINE
  5
C7
330
2
100
AcDbEntity
  8
嵩上断面
  6
Continuous
100
AcDbLine
 10
603.8732745944662
 20
492.5298130748241
 30
0.0
 11
1101.373274594466
 21
492.5298130748241
 31
0.0
  0
LINE
  5
C8
330
2
100
AcDbEntity
  8
嵩上断面
  6
HIDDEN
 48
3.0
100
AcDbLine
 10
603.8732745944662
 20
490.229813074824
 30
0.0
 11
1098.873274594466
 21
490.2298130748239
 31
0.0
  0
LINE
  5
CA
330
2
100
AcDbEntity
  8
嵩上断面
  6
HIDDEN
 48
3.0
100
AcDbLine
 10
603.8732745944662
 20
434.8298130748242
 30
0.0
 11
1098.873274594466
 21
434.829813074824
 31
0.0
  0
LINE
  5
CB
330
2
100
AcDbEntity
  8
本体
  6
Continuous
100
AcDbLine
 10
1846.265972790661
 20
1627.233416887393
 30
0.0
 11
1846.265972790661
 21
1106.233416887393
 31
0.0
  0
LINE
  5
CC
330
2
100
AcDbEntity
  8
本体
  6
Continuous
100
AcDbLine
 10
1878.265972790661
 20
1627.233416887393
 30
0.0
 11
1878.265972790661
 21
1106.233416887393
 31
0.0
  0
LINE
  5
CD
330
2
100
AcDbEntity
  8
本体
  6
Continuous
100
AcDbLine
 10
1872.265972790661
 20
1627.233416887393
 30
0.0
 11
1872.265972790661
 21
1106.233416887393
 31
0.0
  0
LINE
  5
CE
330
2
100
AcDbEntity
  8
本体
  6
Continuous
100
AcDbLine
 10
1846.265972790661
 20
1631.733416887393
 30
0.0
 11
1871.265972790661
 21
1631.733416887394
 31
0.0
  0
LINE
  5
CF
330
2
100
AcDbEntity
  8
本体
  6
Continuous
100
AcDbLine
 10
1846.265972790661
 20
1627.233416887393
 30
0.0
 11
1878.265972790661
 21
1627.233416887393
 31
0.0
  0
LINE
  5
D0
330
2
100
AcDbEntity
  8
本体
  6
Continuous
100
AcDbLine
 10
1846.265972790661
 20
1106.233416887393
 30
0.0
 11
1878.265972790661
 21
1106.233416887393
 31
0.0
  0
LINE
  5
D1
330
2
100
AcDbEntity
  8
本体
  6
Continuous
100
AcDbLine
 10
1846.265972790661
 20
1101.733416887393
 30
0.0
 11
1871.265972790661
 21
1101.733416887393
 31
0.0
  0
DIMENSION
  5
D2
330
2
100
AcDbEntity
  8
寸法線
  6
Continuous
100
AcDbDimension
  2
*D7
 10
1686.265972790661
 20
1101.733416887393
 30
0.0
 11
1666.265972790661
 21
1366.733416887394
 31
0.0
 70
    32
 71
     5
 42
530.0
  3
ISO-25
100
AcDbAlignedDimension
 13
1846.265972790661
 23
1631.733416887393
 33
0.0
 14
1846.265972790661
 24
1101.733416887393
 34
0.0
 50
90.0
100
AcDbRotatedDimension
  0
DIMENSION
  5
F4
330
2
100
AcDbEntity
  8
寸法線
  6
Continuous
100
AcDbDimension
  2
*D8
 10
1098.873274594466
 20
347.5298130748239
 30
0.0
 11
851.3732745944661
 21
367.5298130748239
 31
0.0
 70
    32
 71
     5
 42
495.0
  3
ISO-25
100
AcDbAlignedDimension
 13
603.8732745944662
 23
432.5298130748241
 33
0.0
 14
1098.873274594466
 24
427.5298130748239
 34
0.0
100
AcDbRotatedDimension
  0
DIMENSION
  5
105
330
2
100
AcDbEntity
  8
寸法線
  6
Continuous
100
AcDbDimension
  2
*D9
 10
963.8732745944663
 20
604.5298130748241
 30
0.0
 11
1016.766675609694
 21
624.5298130748241
 31
0.0
 70
    32
 71
     5
 42
30.0
  3
ISO-25
100
AcDbAlignedDimension
 13
933.8732745944662
 23
524.5298130748241
 33
0.0
 14
963.8732745944663
 24
524.5298130748241
 34
0.0
100
AcDbRotatedDimension
1001
ACAD
1000
DSTYLE
1002
{
1070
   279
1070
     0
1002
}
  0
LEADER
  5
114
330
2
100
AcDbEntity
  8
寸法線
  6
Continuous
100
AcDbLeader
  3
ISO-25
 73
     0
 74
     0
 75
     1
 40
30.0
 41
171.1675126903553
 76
     3
 10
1100.938158116594
 20
1631.733416887393
 30
0.0
 10
1156.648836235249
 20
1702.444095006048
 30
0.0
 10
1171.648836235249
 20
1702.444095006048
 30
0.0
340
115
1001
ACAD
1000
DSTYLE
1002
{
1070
     5
1000
OPEN30
1070
    77
1070
     1
1070
   147
1040
0.5
1070
   342
1005
D4
1002
}
  0
MTEXT
  5
115
102
{ACAD_REACTORS
330
114
102
}
330
2
100
AcDbEntity
  8
寸法線
  6
Continuous
100
AcDbMText
 10
1176.648836235249
 20
1707.444095006048
 30
0.0
 40
30.0
 41
0.0
 71
     7
 72
     1
  1
FB4.5\U+00D725
 73
     1
 44
1.0
1001
ACAD
1000
MTEXTBEGIN
1070
    73
1070
     1
1070
    44
1040
1.0
1070
    74
1070
     0
1000
MTEXTEND
  0
DIMENSION
  5
116
330
2
100
AcDbEntity
  8
寸法線
  6
Continuous
100
AcDbDimension
  2
*D10
 10
1211.373274594466
 20
492.529813074824
 30
0.0
 11
1191.373274594466
 21
462.5298130748243
 31
0.0
 70
    32
 71
     5
 42
60.0
  3
ISO-25
100
AcDbAlignedDimension
 13
1098.873274594466
 23
432.5298130748241
 33
0.0
 14
1098.873274594466
 24
492.5298130748241
 34
0.0
 50
270.0
100
AcDbRotatedDimension
  0
DIMENSION
  5
123
330
2
100
AcDbEntity
  8
寸法線
  6
Continuous
100
AcDbDimension
  2
*D11
 10
1211.373274594466
 20
524.5298130748241
 30
0.0
 11
1191.373274594466
 21
577.1186455621339
 31
0.0
 70
    32
 71
     5
 42
32.0
  3
ISO-25
100
AcDbAlignedDimension
 13
1098.873274594466
 23
492.5298130748241
 33
0.0
 14
1101.373274594466
 24
524.5298130748241
 34
0.0
 50
270.0
100
AcDbRotatedDimension
  0
DIMENSION
  5
132
330
2
100
AcDbEntity
  8
寸法線
  6
Continuous
100
AcDbDimension
  2
*D12
 10
1291.373274594466
 20
427.5298130748239
 30
0.0
 11
1271.373274594466
 21
476.0298130748242
 31
0.0
 70
    32
 71
     5
 42
97.00000000000011
  3
ISO-25
100
AcDbAlignedDimension
 13
1101.373274594466
 23
524.5298130748241
 33
0.0
 14
1098.873274594466
 24
427.529813074824
 34
0.0
 50
90.0
100
AcDbRotatedDimension
  0
DIMENSION
  5
13F
330
2
100
AcDbEntity
  8
寸法線
  6
Continuous
100
AcDbDimension
  2
*D13
 10
2023.265974790661
 20
1111.733415887393
 30
0.0
 11
2003.265974790661
 21
1366.733416887394
 31
0.0
 70
    32
 71
     5
 42
510.000002
  3
ISO-25
100
AcDbAlignedDimension
 13
1933.265969790661
 23
1621.733417887393
 33
0.0
 14
1933.265969790661
 24
1111.733415887393
 34
0.0
 50
90.0
100
AcDbRotatedDimension
  0
LEADER
  5
14C
330
2
100
AcDbEntity
  8
寸法線
  6
Continuous
100
AcDbLeader
  3
ISO-25
 73
     0
 74
     0
 75
     1
 40
31.82741116751269
 41
385.4314720812182
 76
     3
 10
1907.500192127926
 20
1621.733417887393
 30
0.0
 10
1963.210870246581
 20
1697.444096006048
 30
0.0
 10
1978.210870246581
 20
1697.444096006048
 30
0.0
340
14D
1001
ACAD
1000
DSTYLE
1002
{
1070
     5
1000
OPEN30
1070
    77
1070
     1
1070
   147
1040
0.5
1070
   342
1005
D4
1002
}
  0
MTEXT
  5
14D
102
{ACAD_REACTORS
330
14C
102
}
330
2
100
AcDbEntity
  8
寸法線
  6
Continuous
100
AcDbMText
 10
1983.210870246581
 20
1702.444096006048
 30
0.0
 40
30.0
 41
0.0
 71
     7
 72
     1
  1
P2.3\U+00D760\U+00D740+HGRゴム
 73
     1
 44
1.0
1001
ACAD
1000
MTEXTBEGIN
1070
    73
1070
     1
1070
    44
1040
1.0
1070
    74
1070
     0
1000
MTEXTEND
  0
LINE
  5
14E
330
2
100
AcDbEntity
  8
本体
  6
Continuous
100
AcDbLine
 10
601.3732745944662
 20
1631.733416887393
 30
0.0
 11
1101.373274594466
 21
1631.733416887393
 31
0.0
  0
LINE
  5
14F
330
2
100
AcDbEntity
  8
本体
  6
Continuous
100
AcDbLine
 10
601.3732745944662
 20
1627.233416887393
 30
0.0
 11
1101.373274594466
 21
1627.233416887393
 31
0.0
  0
LINE
  5
150
330
2
100
AcDbEntity
  8
本体
  6
Continuous
100
AcDbLine
 10
601.3732745944662
 20
1631.733416887393
 30
0.0
 11
601.3732745944662
 21
1101.733416887393
 31
0.0
  0
LINE
  5
151
330
2
100
AcDbEntity
  8
本体
  6
Continuous
100
AcDbLine
 10
601.3732745944662
 20
1627.233416887393
 30
0.0
 11
601.3732745944662
 21
1594.733416887393
 31
0.0
  0
LINE
  5
152
330
2
100
AcDbEntity
  8
本体
  6
Continuous
100
AcDbLine
 10
601.3732745944662
 20
1588.733416887393
 30
0.0
 11
601.3732745944662
 21
1544.733416887394
 31
0.0
  0
LINE
  5
153
330
2
100
AcDbEntity
  8
本体
  6
Continuous
100
AcDbLine
 10
606.3732745944662
 20
1627.233416887393
 30
0.0
 11
606.3732745944662
 21
1594.733416887393
 31
0.0
  0
LINE
  5
154
330
2
100
AcDbEntity
  8
本体
  6
Continuous
100
AcDbLine
 10
606.3732745944662
 20
1588.733416887393
 30
0.0
 11
606.3732745944662
 21
1544.733416887394
 31
0.0
  0
LINE
  5
159
330
2
100
AcDbEntity
  8
エンボス
  6
Continuous
100
AcDbLine
 10
606.3732745944662
 20
1573.733416887393
 30
0.0
 11
601.3732745944662
 21
1575.733416887393
 31
0.0
  0
LINE
  5
15A
330
2
100
AcDbEntity
  8
エンボス
  6
Continuous
100
AcDbLine
 10
601.3732745944662
 20
1578.733416887393
 30
0.0
 11
606.3732745944662
 21
1580.733416887393
 31
0.0
  0
LINE
  5
15B
330
2
100
AcDbEntity
  8
エンボス
  6
Continuous
100
AcDbLine
 10
601.3732745944662
 20
1566.733416887393
 30
0.0
 11
606.3732745944662
 21
1564.733416887393
 31
0.0
  0
LINE
  5
15C
330
2
100
AcDbEntity
  8
エンボス
  6
Continuous
100
AcDbLine
 10
606.3732745944662
 20
1561.733416887394
 30
0.0
 11
601.3732745944662
 21
1559.733416887393
 31
0.0
  0
LINE
  5
15D
330
2
100
AcDbEntity
  8
エンボス
  6
Continuous
100
AcDbLine
 10
606.3732745944662
 20
1545.733416887394
 30
0.0
 11
601.3732745944662
 21
1547.733416887393
 31
0.0
  0
LINE
  5
15E
330
2
100
AcDbEntity
  8
エンボス
  6
Continuous
100
AcDbLine
 10
601.3732745944662
 20
1550.733416887393
 30
0.0
 11
606.3732745944662
 21
1552.733416887394
 31
0.0
  0
LINE
  5
165
330
2
100
AcDbEntity
  8
エンボス
  6
Continuous
100
AcDbLine
 10
606.3732745944662
 20
1603.597510887393
 30
0.0
 11
601.3732745944662
 21
1601.597510887393
 31
0.0
  0
LINE
  5
166
330
2
100
AcDbEntity
  8
エンボス
  6
Continuous
100
AcDbLine
 10
601.3732745944662
 20
1608.597510887393
 30
0.0
 11
606.3732745944662
 21
1606.597510887393
 31
0.0
  0
LINE
  5
167
330
2
100
AcDbEntity
  8
エンボス
  6
Continuous
100
AcDbLine
 10
601.3732745944662
 20
1620.597510887393
 30
0.0
 11
606.3732745944662
 21
1622.597510887393
 31
0.0
  0
LINE
  5
168
330
2
100
AcDbEntity
  8
エンボス
  6
Continuous
100
AcDbLine
 10
606.3732745944662
 20
1615.597510887393
 30
0.0
 11
601.3732745944662
 21
1617.597510887393
 31
0.0
  0
LINE
  5
3BD
330
2
100
AcDbEntity
  8
エンボス
  6
Continuous
100
AcDbLine
 10
606.3732745944662
 20
1117.869322887393
 30
0.0
 11
601.3732745944662
 21
1115.869322887393
 31
0.0
  0
LINE
  5
3BE
330
2
100
AcDbEntity
  8
エンボス
  6
Continuous
100
AcDbLine
 10
601.3732745944662
 20
1112.869322887393
 30
0.0
 11
606.3732745944662
 21
1110.869322887393
 31
0.0
  0
LINE
  5
3BF
330
2
100
AcDbEntity
  8
エンボス
  6
Continuous
100
AcDbLine
 10
601.3732745944662
 20
1124.869322887393
 30
0.0
 11
606.3732745944662
 21
1126.869322887393
 31
0.0
  0
LINE
  5
3C0
330
2
100
AcDbEntity
  8
エンボス
  6
Continuous
100
AcDbLine
 10
606.3732745944662
 20
1129.869322887393
 30
0.0
 11
601.3732745944662
 21
1131.869322887393
 31
0.0
  0
LINE
  5
559
330
2
100
AcDbEntity
  8
本体
  6
Continuous
100
AcDbLine
 10
1086.373274594466
 20
518.5298130748241
 30
0.0
 11
1096.373274594466
 21
520.9298130748241
 31
0.0
  0
LINE
  5
55A
330
2
100
AcDbEntity
  8
本体
  6
Continuous
100
AcDbLine
 10
1086.373274594466
 20
518.5298130748241
 30
0.0
 11
1096.373274594466
 21
518.5298130748241
 31
0.0
  0
LINE
  5
55B
330
2
100
AcDbEntity
  8
本体
  6
Continuous
100
AcDbLine
 10
1086.373274594466
 20
524.5298130748241
 30
0.0
 11
1101.373274594466
 21
524.5298130748241
 31
0.0
  0
DIMENSION
  5
55C
330
2
100
AcDbEntity
  8
寸法線
  6
Continuous
100
AcDbDimension
  2
*D5
 10
1101.373274594466
 20
684.5298130748241
 30
0.0
 11
851.3732745944661
 21
684.5298130748241
 31
0.0
 70
   160
 71
     5
 42
500.0
  3
ISO-25
100
AcDbAlignedDimension
 13
601.3732745944662
 23
524.5298130748241
 33
0.0
 14
1101.373274594466
 24
524.5298130748242
 34
0.0
100
AcDbRotatedDimension
1001
ACAD
1000
DSTYLE
1002
{
1070
   279
1070
     0
1002
}
  0
INSERT
  5
569
330
2
100
AcDbEntity
  8
本体
  6
Continuous
100
AcDbBlockReference
  2
TB6
 10
1846.265972790661
 20
1591.733416887393
 30
0.0
  0
INSERT
  5
572
330
2
100
AcDbEntity
  8
本体
  6
Continuous
100
AcDbBlockReference
  2
TB6
 10
1846.265972790661
 20
1491.733416887393
 30
0.0
  0
INSERT
  5
573
330
2
100
AcDbEntity
  8
本体
  6
Continuous
100
AcDbBlockReference
  2
TB6
 10
1846.265972790661
 20
1391.733416887393
 30
0.0
  0
INSERT
  5
574
330
2
100
AcDbEntity
  8
本体
  6
Continuous
100
AcDbBlockReference
  2
TB6
 10
1846.265972790661
 20
1291.733416887393
 30
0.0
  0
LINE
  5
575
330
2
100
AcDbEntity
  8
本体
  6
Continuous
100
AcDbLine
 10
1871.265972790661
 20
1631.733416887393
 30
0.0
 11
1871.265972790661
 21
1627.233416887393
 31
0.0
  0
LINE
  5
576
330
2
100
AcDbEntity
  8
本体
  6
Continuous
100
AcDbLine
 10
1871.265972790661
 20
1101.733416887393
 30
0.0
 11
1871.265972790661
 21
1106.233416887393
 31
0.0
  0
LINE
  5
577
330
2
100
AcDbEntity
  8
本体
  6
Continuous
100
AcDbLine
 10
1852.265972790661
 20
1627.233416887393
 30
0.0
 11
1852.265972790661
 21
1106.233416887393
 31
0.0
  0
LINE
  5
578
330
2
100
AcDbEntity
  8
本体
  6
Continuous
100
AcDbLine
 10
1846.265972790661
 20
1106.233416887393
 30
0.0
 11
1846.265972790661
 21
1101.733416887393
 31
0.0
  0
LINE
  5
579
330
2
100
AcDbEntity
  8
本体
  6
Continuous
100
AcDbLine
 10
1846.265972790661
 20
1631.733416887393
 30
0.0
 11
1846.265972790661
 21
1627.233416887393
 31
0.0
  0
LINE
  5
57A
330
2
100
AcDbEntity
  8
本体
  6
Continuous
100
AcDbLine
 10
601.3732745944662
 20
1594.733416887393
 30
0.0
 11
1101.373274594466
 21
1594.733416887393
 31
0.0
  0
LINE
  5
57B
330
2
100
AcDbEntity
  8
本体
  6
Continuous
100
AcDbLine
 10
601.3732745944662
 20
1588.733416887393
 30
0.0
 11
1101.373274594466
 21
1588.733416887393
 31
0.0
  0
LINE
  5
59D
330
2
100
AcDbEntity
  8
本体
  6
Continuous
100
AcDbLine
 10
1081.373274594466
 20
1588.733416887394
 30
0.0
 11
1101.373274594466
 21
1592.733416887393
 31
0.0
  0
LINE
  5
60E
330
2
100
AcDbEntity
  8
本体
  6
Continuous
100
AcDbLine
 10
601.3732745944662
 20
1106.233416887393
 30
0.0
 11
1101.373274594466
 21
1106.233416887393
 31
0.0
  0
LINE
  5
60F
330
2
100
AcDbEntity
  8
本体
  6
Continuous
100
AcDbLine
 10
601.3732745944662
 20
1101.733416887393
 30
0.0
 11
1101.373274594466
 21
1101.733416887393
 31
0.0
  0
LINE
  5
610
330
2
100
AcDbEntity
  8
本体
  6
Continuous
100
AcDbLine
 10
601.3732745944662
 20
1106.233416887393
 30
0.0
 11
601.3732745944662
 21
1138.733416887393
 31
0.0
  0
LINE
  5
611
330
2
100
AcDbEntity
  8
本体
  6
Continuous
100
AcDbLine
 10
606.3732745944662
 20
1106.233416887393
 30
0.0
 11
606.3732745944662
 21
1138.733416887393
 31
0.0
  0
LINE
  5
633
330
2
100
AcDbEntity
  8
寸法線
  6
Continuous
100
AcDbLine
 10
933.8732745944662
 20
532.5298130748241
 30
0.0
 11
933.8732745944662
 21
484.5298130748241
 31
0.0
  0
LINE
  5
634
330
2
100
AcDbEntity
  8
寸法線
  6
Continuous
100
AcDbLine
 10
963.8732745944663
 20
532.5298130748241
 30
0.0
 11
963.8732745944663
 21
484.5298130748241
 31
0.0
  0
LINE
  5
659
330
2
100
AcDbEntity
  8
本体
100
AcDbLine
 10
601.3732745944662
 20
524.5298130748241
 30
0.0
 11
606.3732745944662
 21
524.5298130748241
 31
0.0
  0
LINE
  5
65A
330
2
100
AcDbEntity
  8
本体
100
AcDbLine
 10
606.3732745944662
 20
524.5298130748241
 30
0.0
 11
606.3732745944662
 21
518.5298130748241
 31
0.0
  0
LINE
  5
65B
330
2
100
AcDbEntity
  8
本体
100
AcDbLine
 10
606.3732745944662
 20
518.5298130748241
 30
0.0
 11
605.3732745944662
 21
517.5298130748241
 31
0.0
  0
LINE
  5
65C
330
2
100
AcDbEntity
  8
本体
100
AcDbLine
 10
601.3732745944662
 20
524.5298130748241
 30
0.0
 11
601.3732745944662
 21
518.5298130748241
 31
0.0
  0
LINE
  5
65D
330
2
100
AcDbEntity
  8
本体
100
AcDbLine
 10
601.3732745944662
 20
518.5298130748241
 30
0.0
 11
602.3732745944662
 21
517.5298130748241
 31
0.0
  0
LINE
  5
65E
330
2
100
AcDbEntity
  8
本体
100
AcDbLine
 10
601.3732745944662
 20
492.5298130748241
 30
0.0
 11
606.3732745944662
 21
492.5298130748241
 31
0.0
  0
LINE
  5
660
330
2
100
AcDbEntity
  8
本体
100
AcDbLine
 10
606.3732745944662
 20
498.529813074824
 30
0.0
 11
605.3732745944662
 21
499.5298130748241
 31
0.0
  0
LINE
  5
661
330
2
100
AcDbEntity
  8
本体
100
AcDbLine
 10
601.3732745944662
 20
492.5298130748241
 30
0.0
 11
601.3732745944662
 21
498.529813074824
 31
0.0
  0
LINE
  5
662
330
2
100
AcDbEntity
  8
本体
100
AcDbLine
 10
601.3732745944662
 20
498.529813074824
 30
0.0
 11
602.3732745944662
 21
499.5298130748241
 31
0.0
  0
LINE
  5
663
330
2
100
AcDbEntity
  8
本体
100
AcDbLine
 10
602.3732745944662
 20
517.5298130748241
 30
0.0
 11
602.3732745944662
 21
499.5298130748241
 31
0.0
  0
LINE
  5
664
330
2
100
AcDbEntity
  8
本体
100
AcDbLine
 10
605.3732745944662
 20
517.5298130748241
 30
0.0
 11
605.3732745944662
 21
499.5298130748241
 31
0.0
  0
LINE
  5
665
330
2
100
AcDbEntity
  8
本体
100
AcDbLine
 10
601.3732745944662
 20
524.5298130748241
 30
0.0
 11
606.3732745944662
 21
524.5298130748241
 31
0.0
  0
LINE
  5
666
330
2
100
AcDbEntity
  8
本体
100
AcDbLine
 10
606.3732745944662
 20
524.5298130748241
 30
0.0
 11
606.3732745944662
 21
518.5298130748241
 31
0.0
  0
LINE
  5
667
330
2
100
AcDbEntity
  8
本体
100
AcDbLine
 10
606.3732745944662
 20
518.5298130748241
 30
0.0
 11
605.3732745944662
 21
517.5298130748241
 31
0.0
  0
LINE
  5
668
330
2
100
AcDbEntity
  8
本体
100
AcDbLine
 10
601.3732745944662
 20
524.5298130748241
 30
0.0
 11
601.3732745944662
 21
518.5298130748241
 31
0.0
  0
LINE
  5
669
330
2
100
AcDbEntity
  8
本体
100
AcDbLine
 10
601.3732745944662
 20
518.5298130748241
 30
0.0
 11
602.3732745944662
 21
517.5298130748241
 31
0.0
  0
LINE
  5
66A
330
2
100
AcDbEntity
  8
本体
100
AcDbLine
 10
601.3732745944662
 20
492.5298130748241
 30
0.0
 11
603.8732745944662
 21
492.5298130748241
 31
0.0
  0
LINE
  5
66C
330
2
100
AcDbEntity
  8
本体
100
AcDbLine
 10
606.3732745944662
 20
498.529813074824
 30
0.0
 11
605.3732745944662
 21
499.5298130748241
 31
0.0
  0
LINE
  5
66D
330
2
100
AcDbEntity
  8
本体
100
AcDbLine
 10
601.3732745944662
 20
492.5298130748241
 30
0.0
 11
601.3732745944662
 21
498.529813074824
 31
0.0
  0
LINE
  5
66E
330
2
100
AcDbEntity
  8
本体
100
AcDbLine
 10
601.3732745944662
 20
498.529813074824
 30
0.0
 11
602.3732745944662
 21
499.5298130748241
 31
0.0
  0
LINE
  5
66F
330
2
100
AcDbEntity
  8
本体
100
AcDbLine
 10
602.3732745944662
 20
517.5298130748241
 30
0.0
 11
602.3732745944662
 21
499.5298130748241
 31
0.0
  0
LINE
  5
670
330
2
100
AcDbEntity
  8
本体
100
AcDbLine
 10
605.3732745944662
 20
517.5298130748241
 30
0.0
 11
605.3732745944662
 21
499.5298130748241
 31
0.0
  0
LINE
  5
671
330
2
100
AcDbEntity
  8
本体
100
AcDbLine
 10
601.3732745944662
 20
524.5298130748241
 30
0.0
 11
606.3732745944662
 21
524.5298130748241
 31
0.0
  0
LINE
  5
672
330
2
100
AcDbEntity
  8
本体
100
AcDbLine
 10
606.3732745944662
 20
524.5298130748241
 30
0.0
 11
606.3732745944662
 21
518.5298130748241
 31
0.0
  0
LINE
  5
673
330
2
100
AcDbEntity
  8
本体
100
AcDbLine
 10
606.3732745944662
 20
518.5298130748241
 30
0.0
 11
605.3732745944662
 21
517.5298130748241
 31
0.0
  0
LINE
  5
674
330
2
100
AcDbEntity
  8
本体
100
AcDbLine
 10
601.3732745944662
 20
524.5298130748241
 30
0.0
 11
601.3732745944662
 21
518.5298130748241
 31
0.0
  0
LINE
  5
675
330
2
100
AcDbEntity
  8
本体
100
AcDbLine
 10
601.3732745944662
 20
518.5298130748241
 30
0.0
 11
602.3732745944662
 21
517.5298130748241
 31
0.0
  0
LINE
  5
676
330
2
100
AcDbEntity
  8
本体
100
AcDbLine
 10
601.3732745944662
 20
492.5298130748241
 30
0.0
 11
603.8732745944662
 21
492.5298130748241
 31
0.0
  0
LINE
  5
678
330
2
100
AcDbEntity
  8
本体
100
AcDbLine
 10
606.3732745944662
 20
498.529813074824
 30
0.0
 11
605.3732745944662
 21
499.5298130748241
 31
0.0
  0
LINE
  5
679
330
2
100
AcDbEntity
  8
本体
100
AcDbLine
 10
601.3732745944662
 20
492.5298130748241
 30
0.0
 11
601.3732745944662
 21
498.529813074824
 31
0.0
  0
LINE
  5
67A
330
2
100
AcDbEntity
  8
本体
100
AcDbLine
 10
601.3732745944662
 20
498.529813074824
 30
0.0
 11
602.3732745944662
 21
499.5298130748241
 31
0.0
  0
LINE
  5
67B
330
2
100
AcDbEntity
  8
本体
100
AcDbLine
 10
602.3732745944662
 20
517.5298130748241
 30
0.0
 11
602.3732745944662
 21
499.5298130748241
 31
0.0
  0
LINE
  5
67C
330
2
100
AcDbEntity
  8
本体
100
AcDbLine
 10
605.3732745944662
 20
517.5298130748241
 30
0.0
 11
605.3732745944662
 21
499.5298130748241
 31
0.0
  0
INSERT
  5
99B
330
2
100
AcDbEntity
  8
本体
  6
Continuous
100
AcDbBlockReference
  2
TB6
 10
1846.265972790661
 20
1191.733416887393
 30
0.0
  0
LINE
  5
99C
330
2
100
AcDbEntity
  8
ゴム
  6
Continuous
100
AcDbLine
 10
603.8732745944662
 20
432.5298130748241
 30
0.0
 11
603.8732745944662
 21
427.529813074824
 31
0.0
  0
LINE
  5
99D
330
2
100
AcDbEntity
  8
ゴム
  6
Continuous
100
AcDbLine
 10
603.8732745944662
 20
427.529813074824
 30
0.0
 11
1098.873274594466
 21
427.5298130748239
 31
0.0
  0
DIMENSION
  5
9A0
330
2
100
AcDbEntity
  8
寸法線
  6
Continuous
100
AcDbDimension
  2
*D6
 10
1211.373274594466
 20
427.5298130748239
 30
0.0
 11
1191.373274594466
 21
384.7633156128953
 31
0.0
 70
    32
 71
     5
 42
5.000000000000113
  3
ISO-25
100
AcDbAlignedDimension
 13
1098.873274594466
 23
432.5298130748241
 33
0.0
 14
1098.873274594466
 24
427.529813074824
 34
0.0
 50
90.0
100
AcDbRotatedDimension
  0
LINE
  5
A1E
330
2
100
AcDbEntity
  8
嵩上断面
  6
Continuous
100
AcDbLine
 10
1098.873274594466
 20
432.5298130748238
 30
0.0
 11
1098.873274594466
 21
492.5298130748241
 31
0.0
  0
LINE
  5
A1F
330
2
100
AcDbEntity
  8
本体
100
AcDbLine
 10
1100.373274594466
 20
517.5298130748241
 30
0.0
 11
1100.373274594466
 21
499.5298130748241
 31
0.0
  0
LINE
  5
A20
330
2
100
AcDbEntity
  8
本体
100
AcDbLine
 10
1097.373274594466
 20
517.5298130748241
 30
0.0
 11
1097.373274594466
 21
499.5298130748241
 31
0.0
  0
LINE
  5
A21
330
2
100
AcDbEntity
  8
本体
100
AcDbLine
 10
1100.373274594466
 20
517.5298130748241
 30
0.0
 11
1100.373274594466
 21
499.5298130748241
 31
0.0
  0
LINE
  5
A22
330
2
100
AcDbEntity
  8
本体
100
AcDbLine
 10
1097.373274594466
 20
517.5298130748241
 30
0.0
 11
1097.373274594466
 21
499.5298130748241
 31
0.0
  0
LINE
  5
A23
330
2
100
AcDbEntity
  8
本体
100
AcDbLine
 10
1100.373274594466
 20
517.5298130748241
 30
0.0
 11
1100.373274594466
 21
499.5298130748241
 31
0.0
  0
LINE
  5
A24
330
2
100
AcDbEntity
  8
本体
100
AcDbLine
 10
1097.373274594466
 20
517.5298130748241
 30
0.0
 11
1097.373274594466
 21
499.5298130748241
 31
0.0
  0
LINE
  5
A25
330
2
100
AcDbEntity
  8
本体
100
AcDbLine
 10
1096.373274594466
 20
498.529813074824
 30
0.0
 11
1097.373274594466
 21
499.5298130748241
 31
0.0
  0
LINE
  5
A27
330
2
100
AcDbEntity
  8
本体
100
AcDbLine
 10
1101.373274594466
 20
498.529813074824
 30
0.0
 11
1100.373274594466
 21
499.5298130748241
 31
0.0
  0
LINE
  5
A28
330
2
100
AcDbEntity
  8
本体
100
AcDbLine
 10
1101.373274594466
 20
492.5298130748241
 30
0.0
 11
1101.373274594466
 21
498.529813074824
 31
0.0
  0
LINE
  5
A29
330
2
100
AcDbEntity
  8
本体
100
AcDbLine
 10
1096.373274594466
 20
492.5298130748241
 30
0.0
 11
1101.373274594466
 21
492.5298130748241
 31
0.0
  0
LINE
  5
A2A
330
2
100
AcDbEntity
  8
本体
100
AcDbLine
 10
1096.373274594466
 20
498.529813074824
 30
0.0
 11
1097.373274594466
 21
499.5298130748241
 31
0.0
  0
LINE
  5
A2C
330
2
100
AcDbEntity
  8
本体
100
AcDbLine
 10
1101.373274594466
 20
498.529813074824
 30
0.0
 11
1100.373274594466
 21
499.5298130748241
 31
0.0
  0
LINE
  5
A2D
330
2
100
AcDbEntity
  8
本体
100
AcDbLine
 10
1101.373274594466
 20
492.5298130748241
 30
0.0
 11
1101.373274594466
 21
498.529813074824
 31
0.0
  0
LINE
  5
A2E
330
2
100
AcDbEntity
  8
本体
100
AcDbLine
 10
1098.873274594466
 20
492.5298130748241
 30
0.0
 11
1101.373274594466
 21
492.5298130748241
 31
0.0
  0
LINE
  5
A2F
330
2
100
AcDbEntity
  8
本体
100
AcDbLine
 10
1096.373274594466
 20
498.529813074824
 30
0.0
 11
1097.373274594466
 21
499.5298130748241
 31
0.0
  0
LINE
  5
A31
330
2
100
AcDbEntity
  8
本体
100
AcDbLine
 10
1101.373274594466
 20
498.529813074824
 30
0.0
 11
1100.373274594466
 21
499.5298130748241
 31
0.0
  0
LINE
  5
A32
330
2
100
AcDbEntity
  8
本体
100
AcDbLine
 10
1101.373274594466
 20
492.5298130748241
 30
0.0
 11
1101.373274594466
 21
498.529813074824
 31
0.0
  0
LINE
  5
A33
330
2
100
AcDbEntity
  8
本体
100
AcDbLine
 10
1098.873274594466
 20
492.5298130748241
 30
0.0
 11
1101.373274594466
 21
492.5298130748241
 31
0.0
  0
LINE
  5
A34
330
2
100
AcDbEntity
  8
本体
100
AcDbLine
 10
1096.373274594466
 20
518.5298130748241
 30
0.0
 11
1097.373274594466
 21
517.5298130748241
 31
0.0
  0
LINE
  5
A35
330
2
100
AcDbEntity
  8
本体
100
AcDbLine
 10
1096.373274594466
 20
524.5298130748241
 30
0.0
 11
1096.373274594466
 21
518.5298130748241
 31
0.0
  0
LINE
  5
A36
330
2
100
AcDbEntity
  8
本体
100
AcDbLine
 10
1101.373274594466
 20
518.5298130748241
 30
0.0
 11
1100.373274594466
 21
517.5298130748241
 31
0.0
  0
LINE
  5
A37
330
2
100
AcDbEntity
  8
本体
100
AcDbLine
 10
1101.373274594466
 20
524.5298130748241
 30
0.0
 11
1101.373274594466
 21
518.5298130748241
 31
0.0
  0
LINE
  5
A38
330
2
100
AcDbEntity
  8
本体
100
AcDbLine
 10
1096.373274594466
 20
524.5298130748241
 30
0.0
 11
1101.373274594466
 21
524.5298130748241
 31
0.0
  0
LINE
  5
A39
330
2
100
AcDbEntity
  8
本体
100
AcDbLine
 10
1096.373274594466
 20
518.5298130748241
 30
0.0
 11
1097.373274594466
 21
517.5298130748241
 31
0.0
  0
LINE
  5
A3A
330
2
100
AcDbEntity
  8
本体
100
AcDbLine
 10
1096.373274594466
 20
524.5298130748241
 30
0.0
 11
1096.373274594466
 21
518.5298130748241
 31
0.0
  0
LINE
  5
A3B
330
2
100
AcDbEntity
  8
本体
100
AcDbLine
 10
1101.373274594466
 20
518.5298130748241
 30
0.0
 11
1100.373274594466
 21
517.5298130748241
 31
0.0
  0
LINE
  5
A3C
330
2
100
AcDbEntity
  8
本体
100
AcDbLine
 10
1101.373274594466
 20
524.5298130748241
 30
0.0
 11
1101.373274594466
 21
518.5298130748241
 31
0.0
  0
LINE
  5
A3D
330
2
100
AcDbEntity
  8
本体
100
AcDbLine
 10
1096.373274594466
 20
524.5298130748241
 30
0.0
 11
1101.373274594466
 21
524.5298130748241
 31
0.0
  0
LINE
  5
A3E
330
2
100
AcDbEntity
  8
本体
100
AcDbLine
 10
1096.373274594466
 20
518.5298130748241
 30
0.0
 11
1097.373274594466
 21
517.5298130748241
 31
0.0
  0
LINE
  5
A3F
330
2
100
AcDbEntity
  8
本体
100
AcDbLine
 10
1096.373274594466
 20
524.5298130748241
 30
0.0
 11
1096.373274594466
 21
518.5298130748241
 31
0.0
  0
LINE
  5
A40
330
2
100
AcDbEntity
  8
本体
100
AcDbLine
 10
1101.373274594466
 20
518.5298130748241
 30
0.0
 11
1100.373274594466
 21
517.5298130748241
 31
0.0
  0
LINE
  5
A41
330
2
100
AcDbEntity
  8
本体
100
AcDbLine
 10
1101.373274594466
 20
524.5298130748241
 30
0.0
 11
1101.373274594466
 21
518.5298130748241
 31
0.0
  0
LINE
  5
A42
330
2
100
AcDbEntity
  8
本体
100
AcDbLine
 10
1096.373274594466
 20
524.5298130748241
 30
0.0
 11
1101.373274594466
 21
524.5298130748241
 31
0.0
  0
LINE
  5
A49
330
2
100
AcDbEntity
  8
本体
  6
Continuous
100
AcDbLine
 10
1096.373274594466
 20
1106.233416887393
 30
0.0
 11
1096.373274594466
 21
1138.733416887393
 31
0.0
  0
LINE
  5
A4A
330
2
100
AcDbEntity
  8
本体
  6
Continuous
100
AcDbLine
 10
1101.373274594466
 20
1106.233416887393
 30
0.0
 11
1101.373274594466
 21
1138.733416887393
 31
0.0
  0
LINE
  5
A4B
330
2
100
AcDbEntity
  8
エンボス
  6
Continuous
100
AcDbLine
 10
1096.373274594466
 20
1112.869322887393
 30
0.0
 11
1101.373274594466
 21
1110.869322887393
 31
0.0
  0
LINE
  5
A4C
330
2
100
AcDbEntity
  8
エンボス
  6
Continuous
100
AcDbLine
 10
1101.373274594466
 20
1117.869322887393
 30
0.0
 11
1096.373274594466
 21
1115.869322887393
 31
0.0
  0
LINE
  5
A4D
330
2
100
AcDbEntity
  8
エンボス
  6
Continuous
100
AcDbLine
 10
1096.373274594466
 20
1124.869322887393
 30
0.0
 11
1101.373274594466
 21
1126.869322887393
 31
0.0
  0
LINE
  5
A4E
330
2
100
AcDbEntity
  8
エンボス
  6
Continuous
100
AcDbLine
 10
1101.373274594466
 20
1129.869322887393
 30
0.0
 11
1096.373274594466
 21
1131.869322887393
 31
0.0
  0
LINE
  5
A68
330
2
100
AcDbEntity
  8
本体
  6
Continuous
100
AcDbLine
 10
1096.373274594466
 20
1588.733416887393
 30
0.0
 11
1096.373274594466
 21
1544.733416887394
 31
0.0
  0
LINE
  5
A69
330
2
100
AcDbEntity
  8
本体
  6
Continuous
100
AcDbLine
 10
1101.373274594466
 20
1588.733416887393
 30
0.0
 11
1101.373274594466
 21
1544.733416887394
 31
0.0
  0
LINE
  5
A7D
330
2
100
AcDbEntity
  8
エンボス
  6
Continuous
100
AcDbLine
 10
1101.373274594466
 20
1545.733416887394
 30
0.0
 11
1096.373274594466
 21
1547.733416887393
 31
0.0
  0
LINE
  5
A82
330
2
100
AcDbEntity
  8
エンボス
  6
Continuous
100
AcDbLine
 10
1101.373274594466
 20
1573.733416887393
 30
0.0
 11
1096.373274594466
 21
1575.733416887393
 31
0.0
  0
LINE
  5
A83
330
2
100
AcDbEntity
  8
エンボス
  6
Continuous
100
AcDbLine
 10
1096.373274594466
 20
1578.733416887393
 30
0.0
 11
1101.373274594466
 21
1580.733416887393
 31
0.0
  0
LINE
  5
A84
330
2
100
AcDbEntity
  8
エンボス
  6
Continuous
100
AcDbLine
 10
1096.373274594466
 20
1566.733416887393
 30
0.0
 11
1101.373274594466
 21
1564.733416887393
 31
0.0
  0
LINE
  5
A85
330
2
100
AcDbEntity
  8
エンボス
  6
Continuous
100
AcDbLine
 10
1101.373274594466
 20
1561.733416887394
 30
0.0
 11
1096.373274594466
 21
1559.733416887393
 31
0.0
  0
LINE
  5
A86
330
2
100
AcDbEntity
  8
エンボス
  6
Continuous
100
AcDbLine
 10
1096.373274594466
 20
1550.733416887393
 30
0.0
 11
1101.373274594466
 21
1552.733416887394
 31
0.0
  0
LINE
  5
A87
330
2
100
AcDbEntity
  8
本体
  6
Continuous
100
AcDbLine
 10
1096.373274594466
 20
1627.233416887393
 30
0.0
 11
1096.373274594466
 21
1594.733416887393
 31
0.0
  0
LINE
  5
A88
330
2
100
AcDbEntity
  8
本体
  6
Continuous
100
AcDbLine
 10
1101.373274594466
 20
1627.233416887393
 30
0.0
 11
1101.373274594466
 21
1594.733416887393
 31
0.0
  0
LINE
  5
A8D
330
2
100
AcDbEntity
  8
エンボス
  6
Continuous
100
AcDbLine
 10
1101.373274594466
 20
1603.597510887393
 30
0.0
 11
1096.373274594466
 21
1601.597510887393
 31
0.0
  0
LINE
  5
A8E
330
2
100
AcDbEntity
  8
エンボス
  6
Continuous
100
AcDbLine
 10
1096.373274594466
 20
1608.597510887393
 30
0.0
 11
1101.373274594466
 21
1606.597510887393
 31
0.0
  0
LINE
  5
A8F
330
2
100
AcDbEntity
  8
エンボス
  6
Continuous
100
AcDbLine
 10
1096.373274594466
 20
1620.597510887393
 30
0.0
 11
1101.373274594466
 21
1622.597510887393
 31
0.0
  0
LINE
  5
A90
330
2
100
AcDbEntity
  8
エンボス
  6
Continuous
100
AcDbLine
 10
1101.373274594466
 20
1615.597510887393
 30
0.0
 11
1096.373274594466
 21
1617.597510887393
 31
0.0
  0
LINE
  5
A95
330
2
100
AcDbEntity
  8
本体
  6
Continuous
100
AcDbLine
 10
1101.373274594466
 20
1631.733416887393
 30
0.0
 11
1101.373274594466
 21
1101.733416887393
 31
0.0
  0
INSERT
  5
A96
330
2
100
AcDbEntity
  8
ゴム
  6
Continuous
100
AcDbBlockReference
  2
平ゴムパッキン
 10
1935.265969790661
 20
1621.733417887394
 30
0.0
  0
LINE
  5
AD0
330
2
100
AcDbEntity
  8
嵩上平面
  6
HIDDEN
 48
3.0
370
     9
100
AcDbLine
 10
1098.873274594466
 20
1621.733417887394
 30
0.0
 11
603.8732745944662
 21
1621.733417887394
 31
0.0
  0
LINE
  5
AD3
330
2
100
AcDbEntity
  8
嵩上平面
  6
HIDDEN
 48
3.0
370
     9
100
AcDbLine
 10
1098.873274594466
 20
1111.733415887393
 30
0.0
 11
603.8732745944662
 21
1111.733415887393
 31
0.0
  0
LINE
  5
AD4
330
2
100
AcDbEntity
  8
嵩上平面
  6
HIDDEN
 48
3.0
370
     9
100
AcDbLine
 10
1098.873274594466
 20
1111.733415887393
 30
0.0
 11
1098.873274594466
 21
1151.733415887393
 31
0.0
  0
LINE
  5
AD5
330
2
100
AcDbEntity
  8
嵩上平面
  6
HIDDEN
 48
3.0
370
     9
100
AcDbLine
 10
603.8732745944662
 20
1111.733415887393
 30
0.0
 11
603.8732745944662
 21
1151.733415887393
 31
0.0
  0
LINE
  5
AD6
330
2
100
AcDbEntity
  8
嵩上平面
  6
HIDDEN
 48
3.0
370
     9
100
AcDbLine
 10
603.8732745944662
 20
1581.733417887393
 30
0.0
 11
603.8732745944662
 21
1621.733417887394
 31
0.0
  0
LINE
  5
AD7
330
2
100
AcDbEntity
  8
嵩上平面
  6
HIDDEN
 48
3.0
370
     9
100
AcDbLine
 10
1098.873274594466
 20
1581.733417887393
 30
0.0
 11
1098.873274594466
 21
1621.733417887394
 31
0.0
  0
INSERT
  5
ADD
330
2
100
AcDbEntity
  8
本体
  6
Continuous
100
AcDbBlockReference
  2
TB6
 10
1846.265972790661
 20
1241.733416887393
 30
0.0
  0
INSERT
  5
ADE
330
2
100
AcDbEntity
  8
本体
  6
Continuous
100
AcDbBlockReference
  2
TB6
 10
1846.265972790661
 20
1141.733416887393
 30
0.0
  0
INSERT
  5
ADF
330
2
100
AcDbEntity
  8
本体
  6
Continuous
100
AcDbBlockReference
  2
TB6
 10
1846.265972790661
 20
1341.733416887393
 30
0.0
  0
INSERT
  5
AE0
330
2
100
AcDbEntity
  8
本体
  6
Continuous
100
AcDbBlockReference
  2
TB6
 10
1846.265972790661
 20
1441.733416887393
 30
0.0
  0
INSERT
  5
AE1
330
2
100
AcDbEntity
  8
本体
  6
Continuous
100
AcDbBlockReference
  2
TB6
 10
1846.265972790661
 20
1541.733416887393
 30
0.0
  0
DIMENSION
  5
AE2
330
2
100
AcDbEntity
  8
寸法線
 48
3.0
100
AcDbDimension
  2
*D14
 10
1766.265972790661
 20
1541.733416887393
 30
0.0
 11
1746.265972790661
 21
1566.733416887394
 31
0.0
 70
    32
 71
     5
 42
50.0
  3
ISO-25
100
AcDbAlignedDimension
 13
1843.265972790661
 23
1591.733416887393
 33
0.0
 14
1843.265972790661
 24
1541.733416887393
 34
0.0
 50
90.0
100
AcDbRotatedDimension
  0
LINE
  5
AEF
330
2
100
AcDbEntity
  8
本体
  6
Continuous
100
AcDbLine
 10
601.3732745944662
 20
1544.733416887394
 30
0.0
 11
1101.373274594466
 21
1544.733416887394
 31
0.0
  0
LINE
  5
AF0
330
2
100
AcDbEntity
  8
本体
  6
Continuous
100
AcDbLine
 10
601.3732745944662
 20
1538.733416887393
 30
0.0
 11
1101.373274594466
 21
1538.733416887393
 31
0.0
  0
LINE
  5
AF3
330
2
100
AcDbEntity
  8
本体
  6
Continuous
100
AcDbLine
 10
606.3732745944662
 20
1538.733416887393
 30
0.0
 11
606.3732745944662
 21
1494.733416887394
 31
0.0
  0
LINE
  5
AF4
330
2
100
AcDbEntity
  8
本体
  6
Continuous
100
AcDbLine
 10
601.3732745944662
 20
1538.733416887393
 30
0.0
 11
601.3732745944662
 21
1494.733416887394
 31
0.0
  0
LINE
  5
AF5
330
2
100
AcDbEntity
  8
エンボス
  6
Continuous
100
AcDbLine
 10
601.3732745944662
 20
1516.733416887393
 30
0.0
 11
606.3732745944662
 21
1514.733416887393
 31
0.0
  0
LINE
  5
AF6
330
2
100
AcDbEntity
  8
エンボス
  6
Continuous
100
AcDbLine
 10
606.3732745944662
 20
1511.733416887393
 30
0.0
 11
601.3732745944662
 21
1509.733416887393
 31
0.0
  0
LINE
  5
AF7
330
2
100
AcDbEntity
  8
エンボス
  6
Continuous
100
AcDbLine
 10
606.3732745944662
 20
1495.733416887393
 30
0.0
 11
601.3732745944662
 21
1497.733416887393
 31
0.0
  0
LINE
  5
AF8
330
2
100
AcDbEntity
  8
エンボス
  6
Continuous
100
AcDbLine
 10
601.3732745944662
 20
1500.733416887393
 30
0.0
 11
606.3732745944662
 21
1502.733416887393
 31
0.0
  0
LINE
  5
AF9
330
2
100
AcDbEntity
  8
エンボス
  6
Continuous
100
AcDbLine
 10
606.3732745944662
 20
1523.733416887393
 30
0.0
 11
601.3732745944662
 21
1525.733416887393
 31
0.0
  0
LINE
  5
AFA
330
2
100
AcDbEntity
  8
エンボス
  6
Continuous
100
AcDbLine
 10
601.3732745944662
 20
1528.733416887394
 30
0.0
 11
606.3732745944662
 21
1530.733416887393
 31
0.0
  0
LINE
  5
B79
330
2
100
AcDbEntity
  8
本体
  6
Continuous
100
AcDbLine
 10
1081.373274594466
 20
1538.733416887394
 30
0.0
 11
1101.373274594466
 21
1542.733416887393
 31
0.0
  0
LINE
  5
B7A
330
2
100
AcDbEntity
  8
エンボス
  6
Continuous
100
AcDbLine
 10
1101.373274594466
 20
1523.733416887393
 30
0.0
 11
1096.373274594466
 21
1525.733416887393
 31
0.0
  0
LINE
  5
B7B
330
2
100
AcDbEntity
  8
エンボス
  6
Continuous
100
AcDbLine
 10
1096.373274594466
 20
1528.733416887394
 30
0.0
 11
1101.373274594466
 21
1530.733416887393
 31
0.0
  0
LINE
  5
B7C
330
2
100
AcDbEntity
  8
エンボス
  6
Continuous
100
AcDbLine
 10
1096.373274594466
 20
1516.733416887393
 30
0.0
 11
1101.373274594466
 21
1514.733416887393
 31
0.0
  0
LINE
  5
B7D
330
2
100
AcDbEntity
  8
エンボス
  6
Continuous
100
AcDbLine
 10
1101.373274594466
 20
1511.733416887393
 30
0.0
 11
1096.373274594466
 21
1509.733416887393
 31
0.0
  0
LINE
  5
B7E
330
2
100
AcDbEntity
  8
エンボス
  6
Continuous
100
AcDbLine
 10
1101.373274594466
 20
1495.733416887393
 30
0.0
 11
1096.373274594466
 21
1497.733416887393
 31
0.0
  0
LINE
  5
B7F
330
2
100
AcDbEntity
  8
エンボス
  6
Continuous
100
AcDbLine
 10
1096.373274594466
 20
1500.733416887393
 30
0.0
 11
1101.373274594466
 21
1502.733416887393
 31
0.0
  0
LINE
  5
B80
330
2
100
AcDbEntity
  8
本体
  6
Continuous
100
AcDbLine
 10
1096.373274594466
 20
1538.733416887393
 30
0.0
 11
1096.373274594466
 21
1494.733416887394
 31
0.0
  0
LINE
  5
B92
330
2
100
AcDbEntity
  8
本体
  6
Continuous
100
AcDbLine
 10
1101.373274594466
 20
1538.733416887393
 30
0.0
 11
1101.373274594466
 21
1494.733416887394
 31
0.0
  0
LINE
  5
B94
330
2
100
AcDbEntity
  8
本体
  6
Continuous
100
AcDbLine
 10
601.3732745944662
 20
1494.733416887394
 30
0.0
 11
1101.373274594466
 21
1494.733416887394
 31
0.0
  0
LINE
  5
B95
330
2
100
AcDbEntity
  8
本体
  6
Continuous
100
AcDbLine
 10
601.3732745944662
 20
1488.733416887393
 30
0.0
 11
1101.373274594466
 21
1488.733416887393
 31
0.0
  0
LINE
  5
B98
330
2
100
AcDbEntity
  8
本体
  6
Continuous
100
AcDbLine
 10
606.3732745944662
 20
1488.733416887393
 30
0.0
 11
606.3732745944662
 21
1444.733416887394
 31
0.0
  0
LINE
  5
B99
330
2
100
AcDbEntity
  8
本体
  6
Continuous
100
AcDbLine
 10
601.3732745944662
 20
1488.733416887393
 30
0.0
 11
601.3732745944662
 21
1444.733416887394
 31
0.0
  0
LINE
  5
B9A
330
2
100
AcDbEntity
  8
エンボス
  6
Continuous
100
AcDbLine
 10
601.3732745944662
 20
1466.733416887393
 30
0.0
 11
606.3732745944662
 21
1464.733416887393
 31
0.0
  0
LINE
  5
B9B
330
2
100
AcDbEntity
  8
エンボス
  6
Continuous
100
AcDbLine
 10
606.3732745944662
 20
1461.733416887393
 30
0.0
 11
601.3732745944662
 21
1459.733416887393
 31
0.0
  0
LINE
  5
B9C
330
2
100
AcDbEntity
  8
エンボス
  6
Continuous
100
AcDbLine
 10
606.3732745944662
 20
1445.733416887393
 30
0.0
 11
601.3732745944662
 21
1447.733416887393
 31
0.0
  0
LINE
  5
B9D
330
2
100
AcDbEntity
  8
エンボス
  6
Continuous
100
AcDbLine
 10
601.3732745944662
 20
1450.733416887393
 30
0.0
 11
606.3732745944662
 21
1452.733416887393
 31
0.0
  0
LINE
  5
B9E
330
2
100
AcDbEntity
  8
エンボス
  6
Continuous
100
AcDbLine
 10
606.3732745944662
 20
1473.733416887393
 30
0.0
 11
601.3732745944662
 21
1475.733416887393
 31
0.0
  0
LINE
  5
B9F
330
2
100
AcDbEntity
  8
エンボス
  6
Continuous
100
AcDbLine
 10
601.3732745944662
 20
1478.733416887394
 30
0.0
 11
606.3732745944662
 21
1480.733416887393
 31
0.0
  0
LINE
  5
C1E
330
2
100
AcDbEntity
  8
本体
  6
Continuous
100
AcDbLine
 10
1081.373274594466
 20
1488.733416887393
 30
0.0
 11
1101.373274594466
 21
1492.733416887393
 31
0.0
  0
LINE
  5
C1F
330
2
100
AcDbEntity
  8
エンボス
  6
Continuous
100
AcDbLine
 10
1101.373274594466
 20
1473.733416887393
 30
0.0
 11
1096.373274594466
 21
1475.733416887393
 31
0.0
  0
LINE
  5
C20
330
2
100
AcDbEntity
  8
エンボス
  6
Continuous
100
AcDbLine
 10
1096.373274594466
 20
1478.733416887394
 30
0.0
 11
1101.373274594466
 21
1480.733416887393
 31
0.0
  0
LINE
  5
C21
330
2
100
AcDbEntity
  8
エンボス
  6
Continuous
100
AcDbLine
 10
1096.373274594466
 20
1466.733416887393
 30
0.0
 11
1101.373274594466
 21
1464.733416887393
 31
0.0
  0
LINE
  5
C22
330
2
100
AcDbEntity
  8
エンボス
  6
Continuous
100
AcDbLine
 10
1101.373274594466
 20
1461.733416887393
 30
0.0
 11
1096.373274594466
 21
1459.733416887393
 31
0.0
  0
LINE
  5
C23
330
2
100
AcDbEntity
  8
エンボス
  6
Continuous
100
AcDbLine
 10
1101.373274594466
 20
1445.733416887393
 30
0.0
 11
1096.373274594466
 21
1447.733416887393
 31
0.0
  0
LINE
  5
C24
330
2
100
AcDbEntity
  8
エンボス
  6
Continuous
100
AcDbLine
 10
1096.373274594466
 20
1450.733416887393
 30
0.0
 11
1101.373274594466
 21
1452.733416887393
 31
0.0
  0
LINE
  5
C25
330
2
100
AcDbEntity
  8
本体
  6
Continuous
100
AcDbLine
 10
1096.373274594466
 20
1488.733416887393
 30
0.0
 11
1096.373274594466
 21
1444.733416887394
 31
0.0
  0
LINE
  5
C37
330
2
100
AcDbEntity
  8
本体
  6
Continuous
100
AcDbLine
 10
1101.373274594466
 20
1488.733416887393
 30
0.0
 11
1101.373274594466
 21
1444.733416887394
 31
0.0
  0
LINE
  5
C39
330
2
100
AcDbEntity
  8
本体
  6
Continuous
100
AcDbLine
 10
601.3732745944662
 20
1444.733416887394
 30
0.0
 11
1101.373274594466
 21
1444.733416887394
 31
0.0
  0
LINE
  5
C3A
330
2
100
AcDbEntity
  8
本体
  6
Continuous
100
AcDbLine
 10
601.3732745944662
 20
1438.733416887393
 30
0.0
 11
1101.373274594466
 21
1438.733416887393
 31
0.0
  0
LINE
  5
C3D
330
2
100
AcDbEntity
  8
本体
  6
Continuous
100
AcDbLine
 10
606.3732745944662
 20
1438.733416887393
 30
0.0
 11
606.3732745944662
 21
1394.733416887393
 31
0.0
  0
LINE
  5
C3E
330
2
100
AcDbEntity
  8
本体
  6
Continuous
100
AcDbLine
 10
601.3732745944662
 20
1438.733416887393
 30
0.0
 11
601.3732745944662
 21
1394.733416887393
 31
0.0
  0
LINE
  5
C3F
330
2
100
AcDbEntity
  8
エンボス
  6
Continuous
100
AcDbLine
 10
601.3732745944662
 20
1416.733416887393
 30
0.0
 11
606.3732745944662
 21
1414.733416887393
 31
0.0
  0
LINE
  5
C40
330
2
100
AcDbEntity
  8
エンボス
  6
Continuous
100
AcDbLine
 10
606.3732745944662
 20
1411.733416887394
 30
0.0
 11
601.3732745944662
 21
1409.733416887393
 31
0.0
  0
LINE
  5
C41
330
2
100
AcDbEntity
  8
エンボス
  6
Continuous
100
AcDbLine
 10
606.3732745944662
 20
1395.733416887394
 30
0.0
 11
601.3732745944662
 21
1397.733416887393
 31
0.0
  0
LINE
  5
C42
330
2
100
AcDbEntity
  8
エンボス
  6
Continuous
100
AcDbLine
 10
601.3732745944662
 20
1400.733416887393
 30
0.0
 11
606.3732745944662
 21
1402.733416887393
 31
0.0
  0
LINE
  5
C43
330
2
100
AcDbEntity
  8
エンボス
  6
Continuous
100
AcDbLine
 10
606.3732745944662
 20
1423.733416887393
 30
0.0
 11
601.3732745944662
 21
1425.733416887393
 31
0.0
  0
LINE
  5
C44
330
2
100
AcDbEntity
  8
エンボス
  6
Continuous
100
AcDbLine
 10
601.3732745944662
 20
1428.733416887394
 30
0.0
 11
606.3732745944662
 21
1430.733416887393
 31
0.0
  0
LINE
  5
CC3
330
2
100
AcDbEntity
  8
本体
  6
Continuous
100
AcDbLine
 10
1081.373274594466
 20
1438.733416887394
 30
0.0
 11
1101.373274594466
 21
1442.733416887393
 31
0.0
  0
LINE
  5
CC4
330
2
100
AcDbEntity
  8
エンボス
  6
Continuous
100
AcDbLine
 10
1101.373274594466
 20
1423.733416887393
 30
0.0
 11
1096.373274594466
 21
1425.733416887393
 31
0.0
  0
LINE
  5
CC5
330
2
100
AcDbEntity
  8
エンボス
  6
Continuous
100
AcDbLine
 10
1096.373274594466
 20
1428.733416887394
 30
0.0
 11
1101.373274594466
 21
1430.733416887393
 31
0.0
  0
LINE
  5
CC6
330
2
100
AcDbEntity
  8
エンボス
  6
Continuous
100
AcDbLine
 10
1096.373274594466
 20
1416.733416887393
 30
0.0
 11
1101.373274594466
 21
1414.733416887393
 31
0.0
  0
LINE
  5
CC7
330
2
100
AcDbEntity
  8
エンボス
  6
Continuous
100
AcDbLine
 10
1101.373274594466
 20
1411.733416887394
 30
0.0
 11
1096.373274594466
 21
1409.733416887393
 31
0.0
  0
LINE
  5
CC8
330
2
100
AcDbEntity
  8
エンボス
  6
Continuous
100
AcDbLine
 10
1101.373274594466
 20
1395.733416887394
 30
0.0
 11
1096.373274594466
 21
1397.733416887393
 31
0.0
  0
LINE
  5
CC9
330
2
100
AcDbEntity
  8
エンボス
  6
Continuous
100
AcDbLine
 10
1096.373274594466
 20
1400.733416887393
 30
0.0
 11
1101.373274594466
 21
1402.733416887393
 31
0.0
  0
LINE
  5
CCA
330
2
100
AcDbEntity
  8
本体
  6
Continuous
100
AcDbLine
 10
1096.373274594466
 20
1438.733416887393
 30
0.0
 11
1096.373274594466
 21
1394.733416887393
 31
0.0
  0
LINE
  5
CDC
330
2
100
AcDbEntity
  8
本体
  6
Continuous
100
AcDbLine
 10
1101.373274594466
 20
1438.733416887393
 30
0.0
 11
1101.373274594466
 21
1394.733416887393
 31
0.0
  0
LINE
  5
CDE
330
2
100
AcDbEntity
  8
本体
  6
Continuous
100
AcDbLine
 10
601.3732745944662
 20
1394.733416887393
 30
0.0
 11
1101.373274594466
 21
1394.733416887393
 31
0.0
  0
LINE
  5
CDF
330
2
100
AcDbEntity
  8
本体
  6
Continuous
100
AcDbLine
 10
601.3732745944662
 20
1388.733416887393
 30
0.0
 11
1101.373274594466
 21
1388.733416887393
 31
0.0
  0
LINE
  5
CE2
330
2
100
AcDbEntity
  8
本体
  6
Continuous
100
AcDbLine
 10
606.3732745944662
 20
1388.733416887393
 30
0.0
 11
606.3732745944662
 21
1344.733416887393
 31
0.0
  0
LINE
  5
CE3
330
2
100
AcDbEntity
  8
本体
  6
Continuous
100
AcDbLine
 10
601.3732745944662
 20
1388.733416887393
 30
0.0
 11
601.3732745944662
 21
1344.733416887393
 31
0.0
  0
LINE
  5
CE4
330
2
100
AcDbEntity
  8
エンボス
  6
Continuous
100
AcDbLine
 10
601.3732745944662
 20
1366.733416887393
 30
0.0
 11
606.3732745944662
 21
1364.733416887393
 31
0.0
  0
LINE
  5
CE5
330
2
100
AcDbEntity
  8
エンボス
  6
Continuous
100
AcDbLine
 10
606.3732745944662
 20
1361.733416887394
 30
0.0
 11
601.3732745944662
 21
1359.733416887393
 31
0.0
  0
LINE
  5
CE6
330
2
100
AcDbEntity
  8
エンボス
  6
Continuous
100
AcDbLine
 10
606.3732745944662
 20
1345.733416887394
 30
0.0
 11
601.3732745944662
 21
1347.733416887394
 31
0.0
  0
LINE
  5
CE7
330
2
100
AcDbEntity
  8
エンボス
  6
Continuous
100
AcDbLine
 10
601.3732745944662
 20
1350.733416887393
 30
0.0
 11
606.3732745944662
 21
1352.733416887393
 31
0.0
  0
LINE
  5
CE8
330
2
100
AcDbEntity
  8
エンボス
  6
Continuous
100
AcDbLine
 10
606.3732745944662
 20
1373.733416887393
 30
0.0
 11
601.3732745944662
 21
1375.733416887393
 31
0.0
  0
LINE
  5
CE9
330
2
100
AcDbEntity
  8
エンボス
  6
Continuous
100
AcDbLine
 10
601.3732745944662
 20
1378.733416887393
 30
0.0
 11
606.3732745944662
 21
1380.733416887393
 31
0.0
  0
LINE
  5
D68
330
2
100
AcDbEntity
  8
本体
  6
Continuous
100
AcDbLine
 10
1081.373274594466
 20
1388.733416887394
 30
0.0
 11
1101.373274594466
 21
1392.733416887393
 31
0.0
  0
LINE
  5
D69
330
2
100
AcDbEntity
  8
エンボス
  6
Continuous
100
AcDbLine
 10
1101.373274594466
 20
1373.733416887393
 30
0.0
 11
1096.373274594466
 21
1375.733416887393
 31
0.0
  0
LINE
  5
D6A
330
2
100
AcDbEntity
  8
エンボス
  6
Continuous
100
AcDbLine
 10
1096.373274594466
 20
1378.733416887393
 30
0.0
 11
1101.373274594466
 21
1380.733416887393
 31
0.0
  0
LINE
  5
D6B
330
2
100
AcDbEntity
  8
エンボス
  6
Continuous
100
AcDbLine
 10
1096.373274594466
 20
1366.733416887393
 30
0.0
 11
1101.373274594466
 21
1364.733416887393
 31
0.0
  0
LINE
  5
D6C
330
2
100
AcDbEntity
  8
エンボス
  6
Continuous
100
AcDbLine
 10
1101.373274594466
 20
1361.733416887394
 30
0.0
 11
1096.373274594466
 21
1359.733416887393
 31
0.0
  0
LINE
  5
D6D
330
2
100
AcDbEntity
  8
エンボス
  6
Continuous
100
AcDbLine
 10
1101.373274594466
 20
1345.733416887394
 30
0.0
 11
1096.373274594466
 21
1347.733416887394
 31
0.0
  0
LINE
  5
D6E
330
2
100
AcDbEntity
  8
エンボス
  6
Continuous
100
AcDbLine
 10
1096.373274594466
 20
1350.733416887393
 30
0.0
 11
1101.373274594466
 21
1352.733416887393
 31
0.0
  0
LINE
  5
D6F
330
2
100
AcDbEntity
  8
本体
  6
Continuous
100
AcDbLine
 10
1096.373274594466
 20
1388.733416887393
 30
0.0
 11
1096.373274594466
 21
1344.733416887393
 31
0.0
  0
LINE
  5
D81
330
2
100
AcDbEntity
  8
本体
  6
Continuous
100
AcDbLine
 10
1101.373274594466
 20
1388.733416887393
 30
0.0
 11
1101.373274594466
 21
1344.733416887393
 31
0.0
  0
LINE
  5
D83
330
2
100
AcDbEntity
  8
本体
  6
Continuous
100
AcDbLine
 10
601.3732745944662
 20
1344.733416887393
 30
0.0
 11
1101.373274594466
 21
1344.733416887393
 31
0.0
  0
LINE
  5
D84
330
2
100
AcDbEntity
  8
本体
  6
Continuous
100
AcDbLine
 10
601.3732745944662
 20
1338.733416887393
 30
0.0
 11
1101.373274594466
 21
1338.733416887393
 31
0.0
  0
LINE
  5
D87
330
2
100
AcDbEntity
  8
本体
  6
Continuous
100
AcDbLine
 10
606.3732745944662
 20
1338.733416887393
 30
0.0
 11
606.3732745944662
 21
1294.733416887394
 31
0.0
  0
LINE
  5
D88
330
2
100
AcDbEntity
  8
本体
  6
Continuous
100
AcDbLine
 10
601.3732745944662
 20
1338.733416887393
 30
0.0
 11
601.3732745944662
 21
1294.733416887394
 31
0.0
  0
LINE
  5
D89
330
2
100
AcDbEntity
  8
エンボス
  6
Continuous
100
AcDbLine
 10
601.3732745944662
 20
1316.733416887393
 30
0.0
 11
606.3732745944662
 21
1314.733416887393
 31
0.0
  0
LINE
  5
D8A
330
2
100
AcDbEntity
  8
エンボス
  6
Continuous
100
AcDbLine
 10
606.3732745944662
 20
1311.733416887393
 30
0.0
 11
601.3732745944662
 21
1309.733416887393
 31
0.0
  0
LINE
  5
D8B
330
2
100
AcDbEntity
  8
エンボス
  6
Continuous
100
AcDbLine
 10
606.3732745944662
 20
1295.733416887393
 30
0.0
 11
601.3732745944662
 21
1297.733416887393
 31
0.0
  0
LINE
  5
D8C
330
2
100
AcDbEntity
  8
エンボス
  6
Continuous
100
AcDbLine
 10
601.3732745944662
 20
1300.733416887393
 30
0.0
 11
606.3732745944662
 21
1302.733416887393
 31
0.0
  0
LINE
  5
D8D
330
2
100
AcDbEntity
  8
エンボス
  6
Continuous
100
AcDbLine
 10
606.3732745944662
 20
1323.733416887393
 30
0.0
 11
601.3732745944662
 21
1325.733416887393
 31
0.0
  0
LINE
  5
D8E
330
2
100
AcDbEntity
  8
エンボス
  6
Continuous
100
AcDbLine
 10
601.3732745944662
 20
1328.733416887393
 30
0.0
 11
606.3732745944662
 21
1330.733416887393
 31
0.0
  0
LINE
  5
E0D
330
2
100
AcDbEntity
  8
本体
  6
Continuous
100
AcDbLine
 10
1081.373274594466
 20
1338.733416887394
 30
0.0
 11
1101.373274594466
 21
1342.733416887393
 31
0.0
  0
LINE
  5
E0E
330
2
100
AcDbEntity
  8
エンボス
  6
Continuous
100
AcDbLine
 10
1101.373274594466
 20
1323.733416887393
 30
0.0
 11
1096.373274594466
 21
1325.733416887393
 31
0.0
  0
LINE
  5
E0F
330
2
100
AcDbEntity
  8
エンボス
  6
Continuous
100
AcDbLine
 10
1096.373274594466
 20
1328.733416887393
 30
0.0
 11
1101.373274594466
 21
1330.733416887393
 31
0.0
  0
LINE
  5
E10
330
2
100
AcDbEntity
  8
エンボス
  6
Continuous
100
AcDbLine
 10
1096.373274594466
 20
1316.733416887393
 30
0.0
 11
1101.373274594466
 21
1314.733416887393
 31
0.0
  0
LINE
  5
E11
330
2
100
AcDbEntity
  8
エンボス
  6
Continuous
100
AcDbLine
 10
1101.373274594466
 20
1311.733416887393
 30
0.0
 11
1096.373274594466
 21
1309.733416887393
 31
0.0
  0
LINE
  5
E12
330
2
100
AcDbEntity
  8
エンボス
  6
Continuous
100
AcDbLine
 10
1101.373274594466
 20
1295.733416887393
 30
0.0
 11
1096.373274594466
 21
1297.733416887393
 31
0.0
  0
LINE
  5
E13
330
2
100
AcDbEntity
  8
エンボス
  6
Continuous
100
AcDbLine
 10
1096.373274594466
 20
1300.733416887393
 30
0.0
 11
1101.373274594466
 21
1302.733416887393
 31
0.0
  0
LINE
  5
E14
330
2
100
AcDbEntity
  8
本体
  6
Continuous
100
AcDbLine
 10
1096.373274594466
 20
1338.733416887393
 30
0.0
 11
1096.373274594466
 21
1294.733416887394
 31
0.0
  0
LINE
  5
E26
330
2
100
AcDbEntity
  8
本体
  6
Continuous
100
AcDbLine
 10
1101.373274594466
 20
1338.733416887393
 30
0.0
 11
1101.373274594466
 21
1294.733416887394
 31
0.0
  0
LINE
  5
E28
330
2
100
AcDbEntity
  8
本体
  6
Continuous
100
AcDbLine
 10
601.3732745944662
 20
1294.733416887394
 30
0.0
 11
1101.373274594466
 21
1294.733416887394
 31
0.0
  0
LINE
  5
E29
330
2
100
AcDbEntity
  8
本体
  6
Continuous
100
AcDbLine
 10
601.3732745944662
 20
1288.733416887393
 30
0.0
 11
1101.373274594466
 21
1288.733416887393
 31
0.0
  0
LINE
  5
E2C
330
2
100
AcDbEntity
  8
本体
  6
Continuous
100
AcDbLine
 10
606.3732745944662
 20
1288.733416887393
 30
0.0
 11
606.3732745944662
 21
1244.733416887394
 31
0.0
  0
LINE
  5
E2D
330
2
100
AcDbEntity
  8
本体
  6
Continuous
100
AcDbLine
 10
601.3732745944662
 20
1288.733416887393
 30
0.0
 11
601.3732745944662
 21
1244.733416887394
 31
0.0
  0
LINE
  5
E2E
330
2
100
AcDbEntity
  8
エンボス
  6
Continuous
100
AcDbLine
 10
601.3732745944662
 20
1266.733416887393
 30
0.0
 11
606.3732745944662
 21
1264.733416887393
 31
0.0
  0
LINE
  5
E2F
330
2
100
AcDbEntity
  8
エンボス
  6
Continuous
100
AcDbLine
 10
606.3732745944662
 20
1261.733416887393
 30
0.0
 11
601.3732745944662
 21
1259.733416887393
 31
0.0
  0
LINE
  5
E30
330
2
100
AcDbEntity
  8
エンボス
  6
Continuous
100
AcDbLine
 10
606.3732745944662
 20
1245.733416887393
 30
0.0
 11
601.3732745944662
 21
1247.733416887393
 31
0.0
  0
LINE
  5
E31
330
2
100
AcDbEntity
  8
エンボス
  6
Continuous
100
AcDbLine
 10
601.3732745944662
 20
1250.733416887393
 30
0.0
 11
606.3732745944662
 21
1252.733416887393
 31
0.0
  0
LINE
  5
E32
330
2
100
AcDbEntity
  8
エンボス
  6
Continuous
100
AcDbLine
 10
606.3732745944662
 20
1273.733416887393
 30
0.0
 11
601.3732745944662
 21
1275.733416887393
 31
0.0
  0
LINE
  5
E33
330
2
100
AcDbEntity
  8
エンボス
  6
Continuous
100
AcDbLine
 10
601.3732745944662
 20
1278.733416887394
 30
0.0
 11
606.3732745944662
 21
1280.733416887393
 31
0.0
  0
LINE
  5
EB2
330
2
100
AcDbEntity
  8
本体
  6
Continuous
100
AcDbLine
 10
1081.373274594466
 20
1288.733416887394
 30
0.0
 11
1101.373274594466
 21
1292.733416887393
 31
0.0
  0
LINE
  5
EB3
330
2
100
AcDbEntity
  8
エンボス
  6
Continuous
100
AcDbLine
 10
1101.373274594466
 20
1273.733416887393
 30
0.0
 11
1096.373274594466
 21
1275.733416887393
 31
0.0
  0
LINE
  5
EB4
330
2
100
AcDbEntity
  8
エンボス
  6
Continuous
100
AcDbLine
 10
1096.373274594466
 20
1278.733416887394
 30
0.0
 11
1101.373274594466
 21
1280.733416887393
 31
0.0
  0
LINE
  5
EB5
330
2
100
AcDbEntity
  8
エンボス
  6
Continuous
100
AcDbLine
 10
1096.373274594466
 20
1266.733416887393
 30
0.0
 11
1101.373274594466
 21
1264.733416887393
 31
0.0
  0
LINE
  5
EB6
330
2
100
AcDbEntity
  8
エンボス
  6
Continuous
100
AcDbLine
 10
1101.373274594466
 20
1261.733416887393
 30
0.0
 11
1096.373274594466
 21
1259.733416887393
 31
0.0
  0
LINE
  5
EB7
330
2
100
AcDbEntity
  8
エンボス
  6
Continuous
100
AcDbLine
 10
1101.373274594466
 20
1245.733416887393
 30
0.0
 11
1096.373274594466
 21
1247.733416887393
 31
0.0
  0
LINE
  5
EB8
330
2
100
AcDbEntity
  8
エンボス
  6
Continuous
100
AcDbLine
 10
1096.373274594466
 20
1250.733416887393
 30
0.0
 11
1101.373274594466
 21
1252.733416887393
 31
0.0
  0
LINE
  5
EB9
330
2
100
AcDbEntity
  8
本体
  6
Continuous
100
AcDbLine
 10
1096.373274594466
 20
1288.733416887393
 30
0.0
 11
1096.373274594466
 21
1244.733416887394
 31
0.0
  0
LINE
  5
ECB
330
2
100
AcDbEntity
  8
本体
  6
Continuous
100
AcDbLine
 10
1101.373274594466
 20
1288.733416887393
 30
0.0
 11
1101.373274594466
 21
1244.733416887394
 31
0.0
  0
LINE
  5
ECD
330
2
100
AcDbEntity
  8
本体
  6
Continuous
100
AcDbLine
 10
601.3732745944662
 20
1244.733416887394
 30
0.0
 11
1101.373274594466
 21
1244.733416887394
 31
0.0
  0
LINE
  5
ECE
330
2
100
AcDbEntity
  8
本体
  6
Continuous
100
AcDbLine
 10
601.3732745944662
 20
1238.733416887394
 30
0.0
 11
1101.373274594466
 21
1238.733416887394
 31
0.0
  0
LINE
  5
ED1
330
2
100
AcDbEntity
  8
本体
  6
Continuous
100
AcDbLine
 10
606.3732745944662
 20
1238.733416887394
 30
0.0
 11
606.3732745944662
 21
1194.733416887393
 31
0.0
  0
LINE
  5
ED2
330
2
100
AcDbEntity
  8
本体
  6
Continuous
100
AcDbLine
 10
601.3732745944662
 20
1238.733416887394
 30
0.0
 11
601.3732745944662
 21
1194.733416887393
 31
0.0
  0
LINE
  5
ED3
330
2
100
AcDbEntity
  8
エンボス
  6
Continuous
100
AcDbLine
 10
601.3732745944662
 20
1216.733416887393
 30
0.0
 11
606.3732745944662
 21
1214.733416887394
 31
0.0
  0
LINE
  5
ED4
330
2
100
AcDbEntity
  8
エンボス
  6
Continuous
100
AcDbLine
 10
606.3732745944662
 20
1211.733416887393
 30
0.0
 11
601.3732745944662
 21
1209.733416887393
 31
0.0
  0
LINE
  5
ED5
330
2
100
AcDbEntity
  8
エンボス
  6
Continuous
100
AcDbLine
 10
606.3732745944662
 20
1195.733416887393
 30
0.0
 11
601.3732745944662
 21
1197.733416887393
 31
0.0
  0
LINE
  5
ED6
330
2
100
AcDbEntity
  8
エンボス
  6
Continuous
100
AcDbLine
 10
601.3732745944662
 20
1200.733416887393
 30
0.0
 11
606.3732745944662
 21
1202.733416887393
 31
0.0
  0
LINE
  5
ED7
330
2
100
AcDbEntity
  8
エンボス
  6
Continuous
100
AcDbLine
 10
606.3732745944662
 20
1223.733416887393
 30
0.0
 11
601.3732745944662
 21
1225.733416887393
 31
0.0
  0
LINE
  5
ED8
330
2
100
AcDbEntity
  8
エンボス
  6
Continuous
100
AcDbLine
 10
601.3732745944662
 20
1228.733416887394
 30
0.0
 11
606.3732745944662
 21
1230.733416887394
 31
0.0
  0
LINE
  5
F57
330
2
100
AcDbEntity
  8
本体
  6
Continuous
100
AcDbLine
 10
1081.373274594466
 20
1238.733416887394
 30
0.0
 11
1101.373274594466
 21
1242.733416887393
 31
0.0
  0
LINE
  5
F58
330
2
100
AcDbEntity
  8
エンボス
  6
Continuous
100
AcDbLine
 10
1101.373274594466
 20
1223.733416887393
 30
0.0
 11
1096.373274594466
 21
1225.733416887393
 31
0.0
  0
LINE
  5
F59
330
2
100
AcDbEntity
  8
エンボス
  6
Continuous
100
AcDbLine
 10
1096.373274594466
 20
1228.733416887394
 30
0.0
 11
1101.373274594466
 21
1230.733416887394
 31
0.0
  0
LINE
  5
F5A
330
2
100
AcDbEntity
  8
エンボス
  6
Continuous
100
AcDbLine
 10
1096.373274594466
 20
1216.733416887393
 30
0.0
 11
1101.373274594466
 21
1214.733416887394
 31
0.0
  0
LINE
  5
F5B
330
2
100
AcDbEntity
  8
エンボス
  6
Continuous
100
AcDbLine
 10
1101.373274594466
 20
1211.733416887393
 30
0.0
 11
1096.373274594466
 21
1209.733416887393
 31
0.0
  0
LINE
  5
F5C
330
2
100
AcDbEntity
  8
エンボス
  6
Continuous
100
AcDbLine
 10
1101.373274594466
 20
1195.733416887393
 30
0.0
 11
1096.373274594466
 21
1197.733416887393
 31
0.0
  0
LINE
  5
F5D
330
2
100
AcDbEntity
  8
エンボス
  6
Continuous
100
AcDbLine
 10
1096.373274594466
 20
1200.733416887393
 30
0.0
 11
1101.373274594466
 21
1202.733416887393
 31
0.0
  0
LINE
  5
F5E
330
2
100
AcDbEntity
  8
本体
  6
Continuous
100
AcDbLine
 10
1096.373274594466
 20
1238.733416887394
 30
0.0
 11
1096.373274594466
 21
1194.733416887393
 31
0.0
  0
LINE
  5
F70
330
2
100
AcDbEntity
  8
本体
  6
Continuous
100
AcDbLine
 10
1101.373274594466
 20
1238.733416887394
 30
0.0
 11
1101.373274594466
 21
1194.733416887393
 31
0.0
  0
LINE
  5
F72
330
2
100
AcDbEntity
  8
本体
  6
Continuous
100
AcDbLine
 10
601.3732745944662
 20
1194.733416887393
 30
0.0
 11
1101.373274594466
 21
1194.733416887393
 31
0.0
  0
LINE
  5
F73
330
2
100
AcDbEntity
  8
本体
  6
Continuous
100
AcDbLine
 10
601.3732745944662
 20
1188.733416887393
 30
0.0
 11
1101.373274594466
 21
1188.733416887393
 31
0.0
  0
LINE
  5
F76
330
2
100
AcDbEntity
  8
本体
  6
Continuous
100
AcDbLine
 10
606.3732745944662
 20
1188.733416887393
 30
0.0
 11
606.3732745944662
 21
1144.733416887393
 31
0.0
  0
LINE
  5
F77
330
2
100
AcDbEntity
  8
本体
  6
Continuous
100
AcDbLine
 10
601.3732745944662
 20
1188.733416887393
 30
0.0
 11
601.3732745944662
 21
1144.733416887393
 31
0.0
  0
LINE
  5
F78
330
2
100
AcDbEntity
  8
エンボス
  6
Continuous
100
AcDbLine
 10
601.3732745944662
 20
1166.733416887393
 30
0.0
 11
606.3732745944662
 21
1164.733416887393
 31
0.0
  0
LINE
  5
F79
330
2
100
AcDbEntity
  8
エンボス
  6
Continuous
100
AcDbLine
 10
606.3732745944662
 20
1161.733416887393
 30
0.0
 11
601.3732745944662
 21
1159.733416887393
 31
0.0
  0
LINE
  5
F7A
330
2
100
AcDbEntity
  8
エンボス
  6
Continuous
100
AcDbLine
 10
606.3732745944662
 20
1145.733416887393
 30
0.0
 11
601.3732745944662
 21
1147.733416887393
 31
0.0
  0
LINE
  5
F7B
330
2
100
AcDbEntity
  8
エンボス
  6
Continuous
100
AcDbLine
 10
601.3732745944662
 20
1150.733416887393
 30
0.0
 11
606.3732745944662
 21
1152.733416887393
 31
0.0
  0
LINE
  5
F7C
330
2
100
AcDbEntity
  8
エンボス
  6
Continuous
100
AcDbLine
 10
606.3732745944662
 20
1173.733416887393
 30
0.0
 11
601.3732745944662
 21
1175.733416887393
 31
0.0
  0
LINE
  5
F7D
330
2
100
AcDbEntity
  8
エンボス
  6
Continuous
100
AcDbLine
 10
601.3732745944662
 20
1178.733416887393
 30
0.0
 11
606.3732745944662
 21
1180.733416887393
 31
0.0
  0
LINE
  5
FFC
330
2
100
AcDbEntity
  8
本体
  6
Continuous
100
AcDbLine
 10
1081.373274594466
 20
1188.733416887393
 30
0.0
 11
1101.373274594466
 21
1192.733416887393
 31
0.0
  0
LINE
  5
FFD
330
2
100
AcDbEntity
  8
エンボス
  6
Continuous
100
AcDbLine
 10
1101.373274594466
 20
1173.733416887393
 30
0.0
 11
1096.373274594466
 21
1175.733416887393
 31
0.0
  0
LINE
  5
FFE
330
2
100
AcDbEntity
  8
エンボス
  6
Continuous
100
AcDbLine
 10
1096.373274594466
 20
1178.733416887393
 30
0.0
 11
1101.373274594466
 21
1180.733416887393
 31
0.0
  0
LINE
  5
FFF
330
2
100
AcDbEntity
  8
エンボス
  6
Continuous
100
AcDbLine
 10
1096.373274594466
 20
1166.733416887393
 30
0.0
 11
1101.373274594466
 21
1164.733416887393
 31
0.0
  0
LINE
  5
1000
330
2
100
AcDbEntity
  8
エンボス
  6
Continuous
100
AcDbLine
 10
1101.373274594466
 20
1161.733416887393
 30
0.0
 11
1096.373274594466
 21
1159.733416887393
 31
0.0
  0
LINE
  5
1001
330
2
100
AcDbEntity
  8
エンボス
  6
Continuous
100
AcDbLine
 10
1101.373274594466
 20
1145.733416887393
 30
0.0
 11
1096.373274594466
 21
1147.733416887393
 31
0.0
  0
LINE
  5
1002
330
2
100
AcDbEntity
  8
エンボス
  6
Continuous
100
AcDbLine
 10
1096.373274594466
 20
1150.733416887393
 30
0.0
 11
1101.373274594466
 21
1152.733416887393
 31
0.0
  0
LINE
  5
1003
330
2
100
AcDbEntity
  8
本体
  6
Continuous
100
AcDbLine
 10
1096.373274594466
 20
1188.733416887393
 30
0.0
 11
1096.373274594466
 21
1144.733416887393
 31
0.0
  0
LINE
  5
1015
330
2
100
AcDbEntity
  8
本体
  6
Continuous
100
AcDbLine
 10
1101.373274594466
 20
1188.733416887393
 30
0.0
 11
1101.373274594466
 21
1144.733416887393
 31
0.0
  0
LINE
  5
1018
330
2
100
AcDbEntity
  8
本体
  6
Continuous
100
AcDbLine
 10
601.3732745944662
 20
1138.733416887393
 30
0.0
 11
1101.373274594466
 21
1138.733416887393
 31
0.0
  0
LINE
  5
1019
330
2
100
AcDbEntity
  8
本体
  6
Continuous
100
AcDbLine
 10
601.3732745944662
 20
1144.733416887393
 30
0.0
 11
1101.373274594466
 21
1144.733416887393
 31
0.0
  0
LINE
  5
101C
330
2
100
AcDbEntity
  8
エンボス
  6
Continuous
100
AcDbLine
 10
606.3732745944662
 20
1145.733416887393
 30
0.0
 11
601.3732745944662
 21
1147.733416887393
 31
0.0
  0
LINE
  5
1038
330
2
100
AcDbEntity
  8
本体
  6
Continuous
100
AcDbLine
 10
1081.373274594466
 20
1138.733416887394
 30
0.0
 11
1101.373274594466
 21
1142.733416887393
 31
0.0
  0
LINE
  5
1039
330
2
100
AcDbEntity
  8
エンボス
  6
Continuous
100
AcDbLine
 10
1101.373274594466
 20
1145.733416887393
 30
0.0
 11
1096.373274594466
 21
1147.733416887393
 31
0.0
  0
LINE
  5
103E
330
2
100
AcDbEntity
  8
嵩上平面
  6
HIDDEN
 48
3.0
370
     9
100
AcDbLine
 10
1098.873274594466
 20
1151.733415887393
 30
0.0
 11
603.8732745944662
 21
1151.733415887393
 31
0.0
  0
LINE
  5
103F
330
2
100
AcDbEntity
  8
嵩上平面
  6
HIDDEN
 48
3.0
370
     9
100
AcDbLine
 10
1098.873274594466
 20
1581.733417887394
 30
0.0
 11
603.8732745944662
 21
1581.733417887394
 31
0.0
  0
MTEXT
  5
11F4
330
2
100
AcDbEntity
  8
外枠
  6
Continuous
 48
100.0
370
     9
100
AcDbMText
 10
1038.975343934131
 20
43.7816999552947
 30
0.0
 40
25.0
 41
122.0406
 71
     1
 72
     5
  1
SS400
 73
     1
 44
1.0
1001
ACAD
1000
MTEXTBEGIN
1070
    73
1070
     1
1070
    44
1040
1.0
1070
    74
1070
     0
1000
MTEXTEND
  0
MTEXT
  5
11F7
330
2
100
AcDbEntity
  8
外枠
  6
Continuous
 48
100.0
370
     9
100
AcDbMText
 10
1159.385398923399
 20
148.6111115828503
 30
0.0
 40
20.0
 41
1015.1375
 71
     1
 72
     5
  1
表\P面\P処\P理
 73
     1
 44
1.0
1001
ACAD
1000
MTEXTBEGIN
1070
    73
1070
     1
1070
    44
1040
1.0
1070
    74
1070
     0
1000
MTEXTEND
  0
LINE
  5
11F8
330
2
100
AcDbEntity
  8
外枠
  6
Continuous
 48
100.0
370
     9
100
AcDbLine
 10
1188.531791166651
 20
155.3992728207999
 30
0.0
 11
1188.531791166651
 21
9.999999999996816
 31
0.0
  0
LINE
  5
11F9
330
2
100
AcDbEntity
  8
外枠
  6
Continuous
 48
100.0
370
     9
100
AcDbLine
 10
1153.531306970095
 20
155.3992728207999
 30
0.0
 11
1153.531306970095
 21
9.999999999996816
 31
0.0
  0
LINE
  5
11FA
330
2
100
AcDbEntity
  8
外枠
 48
3.0
100
AcDbLine
 10
1188.531791166651
 20
82.6996364103984
 30
0.0
 11
1593.951336296073
 21
82.6996364103984
 31
0.0
  0
LINE
  5
123C
330
2
100
AcDbEntity
  8
本体
100
AcDbLine
 10
606.3732745944662
 20
492.5298130748241
 30
0.0
 11
606.3732745944662
 21
498.529813074824
 31
0.0
  0
LINE
  5
123D
330
2
100
AcDbEntity
  8
本体
100
AcDbLine
 10
606.3732745944662
 20
492.5298130748241
 30
0.0
 11
606.3732745944662
 21
498.529813074824
 31
0.0
  0
LINE
  5
123E
330
2
100
AcDbEntity
  8
本体
100
AcDbLine
 10
606.3732745944662
 20
492.5298130748241
 30
0.0
 11
606.3732745944662
 21
498.529813074824
 31
0.0
  0
LINE
  5
123F
330
2
100
AcDbEntity
  8
本体
100
AcDbLine
 10
1096.373274594466
 20
492.5298130748241
 30
0.0
 11
1096.373274594466
 21
498.529813074824
 31
0.0
  0
LINE
  5
1240
330
2
100
AcDbEntity
  8
本体
100
AcDbLine
 10
1096.373274594466
 20
492.5298130748241
 30
0.0
 11
1096.373274594466
 21
498.529813074824
 31
0.0
  0
LINE
  5
1241
330
2
100
AcDbEntity
  8
本体
100
AcDbLine
 10
1096.373274594466
 20
492.5298130748241
 30
0.0
 11
1096.373274594466
 21
498.529813074824
 31
0.0
  0
LINE
  5
1252
330
2
100
AcDbEntity
  8
本体
  6
Continuous
100
AcDbLine
 10
1086.373274594466
 20
499.5298130748241
 30
0.0
 11
1097.373274594466
 21
499.5298130748241
 31
0.0
  0
INSERT
  5
1381
330
2
100
AcDbEntity
  8
本体
 48
3.0
100
AcDbBlockReference
  2
清水
 10
2387.385592047314
 20
155.3992728208
 30
0.0
  0
MTEXT
  5
1382
330
2
100
AcDbEntity
  8
外枠
  6
Continuous
 48
100.0
370
     9
100
AcDbMText
 10
1202.677957061338
 20
120.1377642323818
 30
0.0
 40
25.0
 41
1015.1375
 71
     1
 72
     5
  1
溶融亜鉛めっき仕上
 73
     1
 44
1.0
1001
ACAD
1000
MTEXTBEGIN
1070
    73
1070
     1
1070
    44
1040
1.0
1070
    74
1070
     0
1000
MTEXTEND
  0
HATCH
  5
13B3
330
2
100
AcDbEntity
  8
ゴム
 48
3.0
100
AcDbHatch
 10
0.0
 20
0.0
 30
0.0
210
0.0
220
0.0
230
1.0
  2
ANSI31
 70
     0
 71
     0
 91
        1
 92
        7
 72
     0
 73
     1
 93
        4
 10
1098.873274594466
 20
432.5298130748239
 10
603.8732745944662
 20
432.5298130748241
 10
603.8732745944662
 20
427.529813074824
 10
1098.873274594466
 20
427.5298130748238
 97
        0
 75
     0
 76
     1
 52
0.0
 41
1.0
 77
     0
 78
     1
 53
45.0
 43
194.0372563614237
 44
-154.1195250894216
 45
-2.245064030267287
 46
2.245064030267288
 79
     0
 47
0.7259761037190052
 98
        1
 10
881.1618217221804
 20
430.8882723552314
  0
LINE
  5
13B4
330
2
100
AcDbEntity
  8
ゴム
 48
3.0
100
AcDbLine
 10
1098.873274594466
 20
432.5298130748238
 30
0.0
 11
1098.873274594466
 21
427.5298130748239
 31
0.0
  0
MTEXT
  5
1483
330
2
100
AcDbEntity
  8
外枠
  6
Continuous
 48
100.0
370
     9
100
AcDbMText
 10
2509.985545378613
 20
121.2206105686568
 30
0.0
 40
23.47884
 41
274.1381
 71
     1
 72
     5
  1
'14・09・01
 73
     1
 44
1.0
1001
ACAD
1000
MTEXTBEGIN
1070
    73
1070
     1
1070
    44
1040
1.0
1070
    74
1070
     0
1000
MTEXTEND
  0
INSERT
  5
1484
330
2
100
AcDbEntity
  8
外枠
 48
3.0
100
AcDbBlockReference
  2
鎌下
 10
2271.730765417811
 20
155.3992728207995
 30
0.0
  0
INSERT
  5
153E
330
2
100
AcDbEntity
  8
嵩上断面
 48
3.0
100
AcDbBlockReference
  2
P-H60
 10
1878.265972790661
 20
1621.733417887393
 30
0.0
  0
INSERT
  5
1540
330
2
100
AcDbEntity
  8
ゴム
  6
Continuous
100
AcDbBlockReference
  2
平ゴムパッキン
 10
1935.265969790661
 20
1111.733415887393
 30
0.0
 41
-1.0
 50
180.0
  0
INSERT
  5
1541
330
2
100
AcDbEntity
  8
嵩上断面
 48
3.0
100
AcDbBlockReference
  2
P-H60
 10
1878.265972790661
 20
1111.733415887393
 30
0.0
 41
-1.0
 50
180.0
  0
MTEXT
  5
1699
330
2
100
AcDbEntity
  8
外枠
  6
Continuous
 48
100.0
370
     9
100
AcDbMText
 10
1022.193186254242
 20
77.61017986570414
 30
0.0
 40
18.0
 41
122.0406
 71
     1
 72
     5
  1
【主部材】
 73
     1
 44
1.0
1001
ACAD
1000
MTEXTBEGIN
1070
    73
1070
     1
1070
    44
1040
1.0
1070
    74
1070
     0
1000
MTEXTEND
  0
MTEXT
  5
169A
330
2
100
AcDbEntity
  8
外枠
  6
Continuous
 48
100.0
370
     9
100
AcDbMText
 10
1199.761738767627
 20
151.0819879350654
 30
0.0
 40
18.0
 41
301.8661
 71
     1
 72
     5
  1
【グレーチング】JIS　H8641
 73
     1
 44
1.0
1001
ACAD
1000
MTEXTBEGIN
1070
    73
1070
     1
1070
    44
1040
1.0
1070
    74
1070
     0
1000
MTEXTEND
  0
MTEXT
  5
169B
330
2
100
AcDbEntity
  8
外枠
  6
Continuous
 48
100.0
370
     9
100
AcDbMText
 10
558.4353641274938
 20
136.1535564242165
 30
0.0
 40
29.0
 41
664.6118999999999
 71
     1
 72
     5
  1
国土交通省タイプ用グレーチング
 73
     1
 44
1.0
1001
ACAD
1000
MTEXTBEGIN
1070
    73
1070
     1
1070
    44
1040
1.0
1070
    74
1070
     0
1000
MTEXTEND
  0
LEADER
  5
16ED
330
2
100
AcDbEntity
  8
寸法線
  6
Continuous
100
AcDbLeader
  3
ISO-25
 73
     0
 74
     0
 75
     1
 40
30.0
 41
210.7614213197969
 76
     3
 10
1100.938158116594
 20
1515.701233974242
 30
0.0
 10
1156.648836235249
 20
1586.411912092897
 30
0.0
 10
1171.648836235249
 20
1586.411912092897
 30
0.0
340
16EE
1001
ACAD
1000
DSTYLE
1002
{
1070
     5
1000
OPEN30
1070
    77
1070
     1
1070
   147
1040
0.5
1070
   342
1005
D4
1002
}
  0
MTEXT
  5
16EE
102
{ACAD_REACTORS
330
16ED
102
}
330
2
100
AcDbEntity
  8
寸法線
  6
Continuous
100
AcDbMText
 10
1176.648836235249
 20
1591.411912092897
 30
0.0
 40
30.0
 41
0.0
 71
     7
 72
     1
  1
GIB5\U+00D73\U+00D732
 73
     1
 44
1.0
1001
ACAD
1000
MTEXTBEGIN
1070
    73
1070
     1
1070
    44
1040
1.0
1070
    74
1070
     0
1000
MTEXTEND
  0
LEADER
  5
16EF
330
2
100
AcDbEntity
  8
寸法線
  6
Continuous
100
AcDbLeader
  3
ISO-25
 73
     0
 74
     0
 75
     1
 40
30.0
 41
35.78680203045685
 76
     3
 10
1100.938158116594
 20
1390.760986515076
 30
0.0
 10
1156.648836235249
 20
1461.471664633731
 30
0.0
 10
1171.648836235249
 20
1461.471664633731
 30
0.0
340
16F0
1001
ACAD
1000
DSTYLE
1002
{
1070
     5
1000
OPEN30
1070
    77
1070
     1
1070
   147
1040
0.5
1070
   342
1005
D4
1002
}
  0
MTEXT
  5
16F0
102
{ACAD_REACTORS
330
16EF
102
}
330
2
100
AcDbEntity
  8
寸法線
  6
Continuous
100
AcDbMText
 10
1176.648836235249
 20
1466.471664633731
 30
0.0
 40
30.0
 41
0.0
 71
     7
 72
     1
  1
TB
 73
     1
 44
1.0
1001
ACAD
1000
MTEXTBEGIN
1070
    73
1070
     1
1070
    44
1040
1.0
1070
    74
1070
     0
1000
MTEXTEND
  0
INSERT
  5
1727
102
{ACAD_REACTORS
330
175B
102
}
330
2
100
AcDbEntity
  8
本体
100
AcDbBlockReference
  2
*U29
 10
620.8732745944662
 20
508.5298130748241
 30
0.0
  0
INSERT
  5
1775
102
{ACAD_REACTORS
330
17DC
102
}
330
2
100
AcDbEntity
  8
本体
100
AcDbBlockReference
  2
*U31
 10
618.8732745944662
 20
1366.733416887393
 30
0.0
  0
ENDSEC
  0
SECTION
  2
OBJECTS
  0
DICTIONARY
  5
7
330
0
100
AcDbDictionary
281
     1
  3
ACAD_ASSOCNETWORK
350
1753
  3
ACAD_CIP_PREVIOUS_PRODUCT_INFO
350
1409
  3
ACAD_COLOR
350
13E9
  3
ACAD_DETAILVIEWSTYLE
350
1402
  3
ACAD_GROUP
350
AC8
  3
ACAD_LAYOUT
350
AAE
  3
ACAD_MATERIAL
350
13B7
  3
ACAD_MLEADERSTYLE
350
13FE
  3
ACAD_MLINESTYLE
350
AC9
  3
ACAD_PLOTSETTINGS
350
ACA
  3
ACAD_PLOTSTYLENAME
350
6
  3
ACAD_SCALELIST
350
13EC
  3
ACAD_SECTIONVIEWSTYLE
350
1400
  3
ACAD_TABLESTYLE
350
13EA
  3
ACAD_VISUALSTYLE
350
13D0
  3
ACDB_RECOMPOSE_DATA
350
1840
  3
AcDbVariableDictionary
350
13A6
  3
DWGPROPS
350
1841
  0
DICTIONARY
  5
1427
330
AC3
100
AcDbDictionary
280
     1
281
     1
  0
DICTIONARY
  5
1479
330
ABB
100
AcDbDictionary
280
     1
281
     1
  3
ACAD_LAYERSTATES
360
147A
  0
DICTIONARY
  5
140A
330
64
100
AcDbDictionary
280
     1
281
     1
  3
ADSK_XREC_LAYER_RECONCILED
360
140B
  0
DICTIONARY
  5
140C
330
6A
100
AcDbDictionary
280
     1
281
     1
  3
ADSK_XREC_LAYER_RECONCILED
360
140D
  0
DICTIONARY
  5
140E
330
4
100
AcDbDictionary
280
     1
281
     1
  3
ADSK_XREC_LAYER_RECONCILED
360
140F
  0
DICTIONARY
  5
1412
330
67
100
AcDbDictionary
280
     1
281
     1
  3
ADSK_XREC_LAYER_RECONCILED
360
1413
  0
DICTIONARY
  5
1414
330
11
100
AcDbDictionary
280
     1
281
     1
  3
ADSK_XREC_LAYER_RECONCILED
360
1415
  0
DICTIONARY
  5
1418
330
1383
100
AcDbDictionary
280
     1
281
     1
  3
ADSK_XREC_LAYER_RECONCILED
360
1419
  0
DICTIONARY
  5
141A
330
1384
100
AcDbDictionary
280
     1
281
     1
  3
ADSK_XREC_LAYER_RECONCILED
360
141B
  0
DICTIONARY
  5
14D1
330
14D0
100
AcDbDictionary
280
     1
281
     1
  0
DICTIONARY
  5
AA9
330
2
100
AcDbDictionary
280
     1
281
     1
  3
ACAD_ASSOCNETWORK
360
1751
  3
ACAD_LAYOUTSELFREF
360
1337
  3
ACAD_SORTENTS
360
154A
  0
DICTIONARY
  5
AB0
330
AAF
100
AcDbDictionary
280
     1
281
     1
  3
ACAD_LAYOUTSELFREF
360
1344
  0
DICTIONARY
  5
AB6
330
AB5
100
AcDbDictionary
280
     1
281
     1
  3
ACAD_LAYOUTSELFREF
360
1345
  0
DICTIONARY
  5
1473
330
1472
100
AcDbDictionary
280
     1
281
     1
  0
DICTIONARY
  5
1886
330
1724
100
AcDbDictionary
280
     1
281
     1
  3
AcDbBlockTableRecordData
360
1887
  0
DICTIONARY
  5
1889
330
1772
100
AcDbDictionary
280
     1
281
     1
  3
AcDbBlockTableRecordData
360
188A
  0
DICTIONARY
  5
1753
102
{ACAD_REACTORS
330
7
102
}
330
7
100
AcDbDictionary
281
     1
  3
ACAD_ASSOCNETWORK
350
1754
  0
XRECORD
  5
1409
102
{ACAD_REACTORS
330
7
102
}
330
7
100
AcDbXrecord
280
     1
300
ACDLT
300
2014
300
ACDLT_F_S
  0
DICTIONARY
  5
13E9
102
{ACAD_REACTORS
330
7
102
}
330
7
100
AcDbDictionary
281
     1
  0
DICTIONARY
  5
1402
102
{ACAD_REACTORS
330
7
102
}
330
7
100
AcDbDictionary
281
     1
  3
Imperial24
350
152F
  3
Metric50
350
1403
  0
DICTIONARY
  5
AC8
102
{ACAD_REACTORS
330
7
102
}
330
7
100
AcDbDictionary
281
     1
  0
DICTIONARY
  5
AAE
102
{ACAD_REACTORS
330
7
102
}
330
7
100
AcDbDictionary
281
     1
  3
Layout1
350
AB4
  3
Layout2
350
ABA
  3
Model
350
AAD
  0
DICTIONARY
  5
13B7
102
{ACAD_REACTORS
330
7
102
}
330
7
100
AcDbDictionary
281
     1
  3
ByBlock
350
13C0
  3
ByLayer
350
13B8
  3
Global
350
13C8
  0
DICTIONARY
  5
13FE
102
{ACAD_REACTORS
330
7
102
}
330
7
100
AcDbDictionary
281
     1
  3
Standard
350
13FF
  0
DICTIONARY
  5
AC9
102
{ACAD_REACTORS
330
7
102
}
330
7
100
AcDbDictionary
281
     1
  3
Standard
350
ACB
  0
DICTIONARY
  5
ACA
102
{ACAD_REACTORS
330
7
102
}
330
7
100
AcDbDictionary
281
     1
  0
ACDBDICTIONARYWDFLT
  5
6
102
{ACAD_REACTORS
330
7
102
}
330
7
100
AcDbDictionary
281
     1
  3
Normal
350
5
100
AcDbDictionaryWithDefault
340
5
  0
DICTIONARY
  5
13EC
102
{ACAD_REACTORS
330
7
102
}
330
7
100
AcDbDictionary
281
     1
  3
A0
350
13ED
  3
A1
350
13EE
  3
A2
350
13EF
  3
A3
350
13F0
  3
A4
350
13F1
  3
A5
350
13F2
  3
A6
350
13F3
  3
A7
350
13F4
  3
A8
350
13F5
  3
A9
350
13F6
  3
B0
350
13F7
  3
B1
350
13F8
  3
B2
350
13F9
  3
B3
350
13FA
  3
B4
350
13FB
  3
B5
350
13FC
  3
B6
350
13FD
  0
DICTIONARY
  5
1400
102
{ACAD_REACTORS
330
7
102
}
330
7
100
AcDbDictionary
281
     1
  3
Imperial24
350
152E
  3
Metric50
350
1401
  0
DICTIONARY
  5
13EA
102
{ACAD_REACTORS
330
7
102
}
330
7
100
AcDbDictionary
281
     1
  3
Standard
350
13EB
  0
DICTIONARY
  5
13D0
102
{ACAD_REACTORS
330
7
102
}
330
7
100
AcDbDictionary
281
     1
  3
2dWireframe
350
13D6
  3
Basic
350
13D5
  3
Brighten
350
13DC
  3
ColorChange
350
13E0
  3
Conceptual
350
13D9
  3
Dim
350
13DB
  3
EdgeColorOff
350
13E8
  3
Facepattern
350
13DF
  3
Flat
350
13D1
  3
FlatWithEdges
350
13D2
  3
Gouraud
350
13D3
  3
GouraudWithEdges
350
13D4
  3
Hidden
350
13D8
  3
JitterOff
350
13E6
  3
Linepattern
350
13DE
  3
OverhangOff
350
13E7
  3
Realistic
350
13DA
  3
Shaded
350
13E5
  3
Shaded with edges
350
13E4
  3
Shades of Gray
350
13E1
  3
Sketchy
350
13E2
  3
Thicken
350
13DD
  3
Wireframe
350
13D7
  3
X-Ray
350
13E3
  0
XRECORD
  5
1840
102
{ACAD_REACTORS
330
7
102
}
330
7
100
AcDbXrecord
280
     1
 90
        1
330
13EB
  0
DICTIONARY
  5
13A6
102
{ACAD_REACTORS
330
7
102
}
330
7
100
AcDbDictionary
281
     1
  3
CANNOSCALE
350
1468
  3
CMLEADERSTYLE
350
1465
  3
CTABLESTYLE
350
1464
  3
CVIEWDETAILSTYLE
350
1466
  3
CVIEWSECTIONSTYLE
350
1467
  3
DIMASSOC
350
146A
  3
INDEXCTL
350
1469
  3
SORTENTS
350
13A7
  3
XCLIPFRAME
350
183E
  0
XRECORD
  5
1841
102
{ACAD_REACTORS
330
7
102
}
330
7
100
AcDbXrecord
280
     1
  1
DWGPROPS COOKIE
  2

  3

  4

  6

  7

  8
takara
  9

300
=
301
=
302
=
303
=
304
=
305
=
306
=
307
=
308
=
309
=
 40
0.0694624652777778
 41
2453510.558637211
 42
2457541.481165324
  1

 90
        0
  0
DICTIONARY
  5
147A
102
{ACAD_REACTORS
330
1479
102
}
330
1479
100
AcDbDictionary
281
     1
  3
_LAYISO_STATE
350
170A
1001
AcLayerTools
1000
AAD
1000
0
  0
XRECORD
  5
140B
102
{ACAD_REACTORS
330
140A
102
}
330
140A
100
AcDbXrecord
280
     1
290
     1
  0
XRECORD
  5
140D
102
{ACAD_REACTORS
330
140C
102
}
330
140C
100
AcDbXrecord
280
     1
290
     1
  0
XRECORD
  5
140F
102
{ACAD_REACTORS
330
140E
102
}
330
140E
100
AcDbXrecord
280
     1
290
     1
  0
XRECORD
  5
1413
102
{ACAD_REACTORS
330
1412
102
}
330
1412
100
AcDbXrecord
280
     1
290
     1
  0
XRECORD
  5
1415
102
{ACAD_REACTORS
330
1414
102
}
330
1414
100
AcDbXrecord
280
     1
290
     1
  0
XRECORD
  5
1419
102
{ACAD_REACTORS
330
1418
102
}
330
1418
100
AcDbXrecord
280
     1
290
     1
  0
XRECORD
  5
141B
102
{ACAD_REACTORS
330
141A
102
}
330
141A
100
AcDbXrecord
280
     1
290
     1
  0
DICTIONARY
  5
1751
102
{ACAD_REACTORS
330
AA9
102
}
330
AA9
100
AcDbDictionary
281
     1
  3
ACAD_ASSOCNETWORK
350
1752
  0
XRECORD
  5
1337
102
{ACAD_REACTORS
330
AA9
102
}
330
AA9
100
AcDbXrecord
280
     1
340
2
  0
SORTENTSTABLE
  5
154A
102
{ACAD_REACTORS
330
AA9
102
}
330
AA9
100
AcDbSortentsTable
330
2
331
C40
  5
C41
331
A4A
  5
A4B
331
B80
  5
B81
331
CC
  5
CD
331
2C
  5
2C
331
D68
  5
D69
331
D83
  5
D84
331
CC8
  5
CC9
331
ED5
  5
ED6
331
1015
  5
1016
331
663
  5
664
331
B7
  5
B7
331
55B
  5
55C
331
A84
  5
A85
331
A27
  5
A28
331
675
  5
676
331
B9A
  5
B9B
331
AFA
  5
AFB
331
46
  5
46
331
633
  5
634
331
CE2
  5
CE3
331
A34
  5
A35
331
C1F
  5
C20
331
EB2
  5
EB3
331
154
  5
159
331
ECD
  5
ECE
331
D1
  5
D2
331
53
  5
53
331
153E
  5
153F
331
11F8
  5
11F9
331
65B
  5
65C
331
575
  5
576
331
E11
  5
E12
331
D6D
  5
D6E
331
A41
  5
A42
331
114
  5
115
331
FFF
  5
1000
331
B92
  5
B93
331
AD7
  5
ADD
331
610
  5
611
331
60
  5
60
331
23
  5
23
331
13F
  5
14C
331
123D
  5
123E
331
3E
  5
3E
331
A2C
  5
A2D
331
B9F
  5
BA0
331
AE
  5
AE
331
14C
  5
14D
331
4B
  5
4B
331
CE7
  5
CE8
331
66C
  5
66D
331
A96
  5
AD0
331
A39
  5
A3A
331
1019
  5
101A
331
EB7
  5
EB8
331
1240
  5
1241
331
3BE
  5
3BF
331
F79
  5
F7A
331
BB
  5
BB
331
159
  5
15A
331
58
  5
58
331
1B
  5
1B
331
57A
  5
57B
331
679
  5
67A
331
B7C
  5
B7D
331
C8
  5
C8
331
166
  5
167
331
28
  5
28
331
CC4
  5
CC5
331
CDF
  5
CE0
331
C23
  5
C24
331
A8E
  5
A8F
331
ED1
  5
ED2
331
B3
  5
B3
331
E30
  5
E31
331
D8C
  5
D8D
331
A23
  5
A24
331
671
  5
672
331
A3E
  5
A3F
331
F5C
  5
F5D
331
AF6
  5
AF7
331
42
  5
42
331
15E
  5
165
331
5D
  5
5D
331
C41
  5
C42
331
A4B
  5
A4C
331
F70
  5
F71
331
150
  5
151
331
1252
  5
1253
331
12
  5
12
331
CD
  5
CE
331
11F4
  5
11F6
331
E0D
  5
E0E
331
D69
  5
D6A
331
D84
  5
D85
331
CC9
  5
CCA
331
1038
  5
1039
331
ED6
  5
ED7
331
AD3
  5
AD4
331
3A
  5
3A
331
664
  5
665
331
55C
  5
569
331
A85
  5
A86
331
A28
  5
A29
331
676
  5
678
331
AE0
  5
AE1
331
B9B
  5
B9C
331
634
  5
635
331
47
  5
47
331
C5
  5
C5
331
569
  5
572
331
CE3
  5
CE4
331
668
  5
669
331
A35
  5
A36
331
EB3
  5
EB4
331
ECE
  5
ECF
331
54
  5
54
331
17
  5
17
331
D2
  5
F4
331
11F9
  5
11FA
331
65C
  5
65D
331
576
  5
577
331
E12
  5
E13
331
D6E
  5
D6F
331
A42
  5
A43
331
A7D
  5
A82
331
13B3
  5
13B4
331
1000
  5
1001
331
115
  5
116
331
611
  5
612
331
61
  5
61
331
24
  5
24
331
123E
  5
123F
331
3F
  5
3F
331
A2D
  5
A2E
331
132
  5
13F
331
31
  5
31
331
F4
  5
101
331
14D
  5
14E
331
AF
  5
AF
331
4C
  5
4C
331
E2C
  5
E2D
331
D88
  5
D89
331
CE8
  5
CE9
331
66D
  5
66E
331
A3A
  5
A3B
331
F58
  5
F59
331
EB8
  5
EB9
331
3BF
  5
3C0
331
F7A
  5
F7B
331
105
  5
114
331
15A
  5
15B
331
1241
  5
1242
331
59
  5
59
331
1C
  5
1C
331
57B
  5
57C
331
C3D
  5
C3E
331
67A
  5
67B
331
B7D
  5
B7E
331
ADD
  5
ADE
331
167
  5
168
331
29
  5
29
331
CC5
  5
CC6
331
C24
  5
C25
331
A8F
  5
A90
331
ED2
  5
ED3
331
660
  5
661
331
B4
  5
B4
331
E31
  5
E32
331
D8D
  5
D8E
331
672
  5
673
331
A24
  5
A25
331
A3F
  5
A40
331
F5D
  5
F5E
331
1381
  5
1382
331
AF7
  5
AF8
331
1483
  5
1484
331
43
  5
43
331
60E
  5
60F
331
5E
  5
5E
331
C42
  5
C43
331
A31
  5
A32
331
A4C
  5
A4D
331
151
  5
152
331
50
  5
50
331
CE
  5
CF
331
13
  5
13
331
572
  5
573
331
E0E
  5
E0F
331
D6A
  5
D6B
331
CCA
  5
CCB
331
1039
  5
103A
331
FFC
  5
FFD
331
ED7
  5
ED8
331
AD4
  5
AD5
331
AEF
  5
AF0
331
20
  5
20
331
665
  5
666
331
3B
  5
3B
331
A86
  5
A87
331
A29
  5
A2A
331
99B
  5
99C
331
AE1
  5
AE2
331
B9C
  5
B9D
331
AB
  5
AB
331
48
  5
48
331
C6
  5
C6
331
E28
  5
E29
331
CE4
  5
CE5
331
669
  5
66A
331
A36
  5
A37
331
EB4
  5
EB5
331
F76
  5
F77
331
B8
  5
B8
331
59D
  5
60E
331
55
  5
55
331
18
  5
18
331
577
  5
578
331
65D
  5
65E
331
11FA
  5
123C
331
E13
  5
E14
331
D6F
  5
D70
331
C39
  5
C3A
331
B79
  5
B7A
331
13B4
  5
1483
331
103E
  5
103F
331
1001
  5
1002
331
B94
  5
B95
331
116
  5
123
331
62
  5
62
331
25
  5
25
331
123F
  5
1240
331
CDC
  5
CDD
331
C20
  5
C21
331
A68
  5
A69
331
A2E
  5
A2F
331
14E
  5
14F
331
B0
  5
B0
331
32
  5
32
331
4D
  5
4D
331
E2D
  5
E2E
331
D89
  5
D8A
331
CE9
  5
CEA
331
66E
  5
66F
331
A20
  5
A21
331
A3B
  5
A3C
331
F59
  5
F5A
331
AF3
  5
AF4
331
EB9
  5
EBA
331
3C0
  5
3C1
331
F7B
  5
F7C
331
15B
  5
15C
331
5A
  5
5A
331
C3E
  5
C3F
331
67B
  5
67C
331
B7E
  5
B7F
331
CA
  5
CA
331
ADE
  5
ADF
331
123
  5
132
331
168
  5
169
331
2A
  5
2A
331
D81
  5
D82
331
CC6
  5
CC7
331
C25
  5
C26
331
ED3
  5
ED4
331
AD0
  5
AD3
331
B5
  5
B5
331
37
  5
37
331
661
  5
662
331
559
  5
55A
331
E32
  5
E33
331
D8E
  5
D8F
331
A82
  5
A83
331
673
  5
674
331
A25
  5
A27
331
F5E
  5
F5F
331
B98
  5
B99
331
1382
  5
13B3
331
AF8
  5
AF9
331
1484
  5
153E
331
44
  5
44
331
5F
  5
5F
331
60F
  5
610
331
C43
  5
C44
331
A32
  5
A33
331
A4D
  5
A4E
331
F72
  5
F73
331
ECB
  5
ECC
331
152
  5
153
331
51
  5
51
331
CF
  5
D0
331
14
  5
14
331
659
  5
65A
331
2F
  5
2F
331
573
  5
574
331
E0F
  5
E10
331
D6B
  5
D6C
331
FFD
  5
FFE
331
ED8
  5
ED9
331
AD5
  5
AD6
331
21
  5
21
331
3C
  5
3C
331
666
  5
667
331
A87
  5
A88
331
A2A
  5
A2C
331
99C
  5
99D
331
AE2
  5
AEF
331
B9D
  5
B9E
331
AC
  5
AC
331
C7
  5
C7
331
49
  5
49
331
E29
  5
E2A
331
CE5
  5
CE6
331
66A
  5
66C
331
A37
  5
A38
331
EB5
  5
EB6
331
F77
  5
F78
331
56
  5
56
331
19
  5
19
331
65E
  5
660
331
578
  5
579
331
E14
  5
E15
331
C3A
  5
C3B
331
A1E
  5
A1F
331
B7A
  5
B7B
331
1002
  5
1003
331
103F
  5
11A2
331
B95
  5
B96
331
63
  5
63
331
26
  5
26
331
C21
  5
C22
331
A69
  5
A7D
331
A2F
  5
A31
331
1540
  5
1541
331
14F
  5
150
331
B1
  5
B1
331
33
  5
33
331
4E
  5
4E
331
E2E
  5
E2F
331
D8A
  5
D8B
331
66F
  5
670
331
A21
  5
A22
331
A3C
  5
A3D
331
F5A
  5
F5B
331
101C
  5
101D
331
AF4
  5
AF5
331
40
  5
40
331
F7C
  5
F7D
331
15C
  5
15D
331
1E
  5
1E
331
5B
  5
5B
331
67C
  5
67D
331
C3F
  5
C40
331
A49
  5
A4A
331
9A0
  5
A1E
331
B7F
  5
B80
331
CB
  5
CB
331
ADF
  5
AE0
331
2B
  5
2B
331
E26
  5
E27
331
CC7
  5
CC8
331
ED4
  5
ED5
331
38
  5
38
331
662
  5
663
331
55A
  5
55B
331
E33
  5
E34
331
A83
  5
A84
331
674
  5
675
331
C37
  5
C38
331
B99
  5
B9A
331
AF9
  5
AFA
331
45
  5
45
331
A90
  5
A95
331
A33
  5
A34
331
C44
  5
C45
331
A4E
  5
A68
331
C1E
  5
C1F
331
F73
  5
F74
331
153
  5
154
331
D0
  5
D1
331
52
  5
52
331
11F7
  5
11F8
331
65A
  5
65B
331
574
  5
575
331
E10
  5
E11
331
D6C
  5
D6D
331
D87
  5
D88
331
A40
  5
A41
331
FFE
  5
FFF
331
AD6
  5
AD7
331
F57
  5
F58
331
22
  5
22
331
123C
  5
123D
331
667
  5
668
331
3D
  5
3D
331
A88
  5
A8D
331
99D
  5
9A0
331
B9E
  5
B9F
331
4A
  5
4A
331
CE6
  5
CE7
331
A95
  5
A96
331
A38
  5
A39
331
1018
  5
1019
331
AF0
  5
AF1
331
EB6
  5
EB7
331
BA
  5
BA
331
F78
  5
F79
331
3BD
  5
3BE
331
57
  5
57
331
1A
  5
1A
331
579
  5
57A
331
678
  5
679
331
A1F
  5
A20
331
B7B
  5
B7C
331
1003
  5
1004
331
165
  5
166
331
27
  5
27
331
CC3
  5
CC4
331
CDE
  5
CDF
331
C22
  5
C23
331
A8D
  5
A8E
331
1541
  5
1542
331
B2
  5
B2
331
4F
  5
4F
331
E2F
  5
E30
331
D8B
  5
D8C
331
A22
  5
A23
331
670
  5
671
331
A3D
  5
A3E
331
F5B
  5
F5C
331
AF5
  5
AF6
331
41
  5
41
331
F7D
  5
F7E
331
15D
  5
15E
331
1F
  5
1F
331
5C
  5
5C
  0
XRECORD
  5
1344
102
{ACAD_REACTORS
330
AB0
102
}
330
AB0
100
AcDbXrecord
280
     1
340
AAF
  0
XRECORD
  5
1345
102
{ACAD_REACTORS
330
AB6
102
}
330
AB6
100
AcDbXrecord
280
     1
340
AB5
  0
DICTIONARY
  5
1887
102
{ACAD_REACTORS
330
1886
102
}
330
1886
100
AcDbDictionary
280
     1
281
     1
  3
Edit
360
1888
  0
DICTIONARY
  5
188A
102
{ACAD_REACTORS
330
1889
102
}
330
1889
100
AcDbDictionary
280
     1
281
     1
  3
Edit
360
188B
  0
ACDBASSOCNETWORK
  5
1754
102
{ACAD_REACTORS
330
1753
102
}
330
1753
100
AcDbAssocAction
 90
        1
 90
        1
330
0
360
0
 90
        0
 90
        0
 90
        0
100
AcDbAssocNetwork
 90
        0
 90
        1
 90
        1
330
1752
 90
        1
330
1752
  0
ACDBDETAILVIEWSTYLE
  5
152F
102
{ACAD_XDICTIONARY
360
1884
102
}
102
{ACAD_REACTORS
330
1402
102
}
330
1402
100
AcDbModelDocViewStyle
 70
     0
  3
Imperial24
290
     0
100
AcDbDetailViewStyle
 70
     0
 71
     0
 90
        3
 71
     1
340
9
 40
0.24
340
0
 40
0.24
300

 40
0.36
280
     3
 71
     2
340
8
 90
       25
 71
     3
340
9
 40
0.24
 90
        1
 40
0.75
 90
        1
300
%<\AcVar ViewType \f "%tc1">% %<\AcVar ViewDetailId>%\PSCALE %<\AcVar ViewScale \f "%sn">%
 71
     4
340
8
 90
       25
340
8
 90
       25
280
     0
  0
ACDBDETAILVIEWSTYLE
  5
1403
102
{ACAD_XDICTIONARY
360
1880
102
}
102
{ACAD_REACTORS
330
1402
102
}
330
1402
100
AcDbModelDocViewStyle
 70
     0
  3
Metric50
290
     0
100
AcDbDetailViewStyle
 70
     0
 71
     0
 90
        3
 71
     1
340
9
 40
5.0
340
0
 40
5.0
300

 40
0.0
280
     1
 71
     2
340
8
 90
       25
 71
     3
340
9
 40
5.0
 90
        0
 40
15.0
 90
        1
300
%<\AcVar ViewDetailId>% (%<\AcVar ViewScale \f "%sn">%)
 71
     4
340
8
 90
       25
340
8
 90
       25
280
     0
  0
LAYOUT
  5
AB4
102
{ACAD_XDICTIONARY
360
1844
102
}
102
{ACAD_REACTORS
330
AAE
102
}
330
AAE
100
AcDbPlotSettings
  1

  2
None
  4

  6

 40
0.0
 41
0.0
 42
0.0
 43
0.0
 44
0.0
 45
0.0
 46
0.0
 47
0.0
 48
0.0
 49
0.0
140
0.0
141
0.0
142
1.0
143
1.0
 70
   688
 72
     0
 73
     0
 74
     5
  7
monochrome.ctb
 75
    16
147
1.0
148
0.0
149
0.0
100
AcDbLayout
  1
Layout1
 70
     1
 71
     1
 10
0.0
 20
0.0
 11
12.0
 21
9.0
 12
0.0
 22
0.0
 32
0.0
 14
0.0
 24
0.0
 34
0.0
 15
0.0
 25
0.0
 35
0.0
146
0.0
 13
0.0
 23
0.0
 33
0.0
 16
1.0
 26
0.0
 36
0.0
 17
0.0
 27
1.0
 37
0.0
 76
     0
330
AAF
  0
LAYOUT
  5
ABA
102
{ACAD_XDICTIONARY
360
1846
102
}
102
{ACAD_REACTORS
330
AAE
102
}
330
AAE
100
AcDbPlotSettings
  1

  2
None
  4

  6

 40
0.0
 41
0.0
 42
0.0
 43
0.0
 44
0.0
 45
0.0
 46
0.0
 47
0.0
 48
0.0
 49
0.0
140
0.0
141
0.0
142
1.0
143
1.0
 70
   688
 72
     0
 73
     0
 74
     5
  7
monochrome.ctb
 75
    16
147
1.0
148
0.0
149
0.0
100
AcDbLayout
  1
Layout2
 70
     1
 71
     2
 10
0.0
 20
0.0
 11
12.0
 21
9.0
 12
0.0
 22
0.0
 32
0.0
 14
0.0
 24
0.0
 34
0.0
 15
0.0
 25
0.0
 35
0.0
146
0.0
 13
0.0
 23
0.0
 33
0.0
 16
1.0
 26
0.0
 36
0.0
 17
0.0
 27
1.0
 37
0.0
 76
     0
330
AB5
  0
LAYOUT
  5
AAD
102
{ACAD_XDICTIONARY
360
1842
102
}
102
{ACAD_REACTORS
330
AAE
102
}
330
AAE
100
AcDbPlotSettings
  1

  2
EPSON LP-9400
  4
A4
  6

 40
5.873749732971191
 41
5.873747825622558
 42
5.873748779296875
 43
5.873748779296875
 44
209.9733276367187
 45
297.0106506347656
 46
2.339999999999999
 47
0.0
 48
0.0
 49
0.0
140
0.0
141
0.0
142
1.0
143
9.816891609963194
 70
 11956
 72
     1
 73
     1
 74
     1
  7
monochrome.ctb
 75
     0
147
0.1018652379725877
148
1264.94917075748
149
959.6633564695521
100
AcDbLayout
  1
Model
 70
     1
 71
     0
 10
0.0
 20
0.0
 11
12.0
 21
9.0
 12
0.0
 22
0.0
 32
0.0
 14
0.0
 24
0.0
 34
0.0
 15
0.0
 25
0.0
 35
0.0
146
0.0
 13
0.0
 23
0.0
 33
0.0
 16
1.0
 26
0.0
 36
0.0
 17
0.0
 27
1.0
 37
0.0
 76
     0
330
2
331
13B5
  0
MATERIAL
  5
13C0
102
{ACAD_XDICTIONARY
360
13C1
102
}
102
{ACAD_REACTORS
330
13B7
102
}
330
13B7
100
AcDbMaterial
  1
ByBlock
 72
     0
 43
0.0008202099737533
 43
0.0
 43
0.0
 43
0.0
 43
0.0
 43
0.0008202099737533
 43
0.0
 43
0.0
 43
0.0
 43
0.0
 43
1.0
 43
0.0
 43
0.0
 43
0.0
 43
0.0
 43
1.0
 77
     0
 47
0.0008202099737533
 47
0.0
 47
0.0
 47
0.0
 47
0.0
 47
0.0008202099737533
 47
0.0
 47
0.0
 47
0.0
 47
0.0
 47
1.0
 47
0.0
 47
0.0
 47
0.0
 47
0.0
 47
1.0
171
     0
 49
0.0008202099737533
 49
0.0
 49
0.0
 49
0.0
 49
0.0
 49
0.0008202099737533
 49
0.0
 49
0.0
 49
0.0
 49
0.0
 49
1.0
 49
0.0
 49
0.0
 49
0.0
 49
0.0
 49
1.0
175
     0
142
0.0008202099737533
142
0.0
142
0.0
142
0.0
142
0.0
142
0.0008202099737533
142
0.0
142
0.0
142
0.0
142
0.0
142
1.0
142
0.0
142
0.0
142
0.0
142
0.0
142
1.0
179
     0
144
0.0008202099737533
144
0.0
144
0.0
144
0.0
144
0.0
144
0.0008202099737533
144
0.0
144
0.0
144
0.0
144
0.0
144
1.0
144
0.0
144
0.0
144
0.0
144
0.0
144
1.0
147
0.0008202099737533
147
0.0
147
0.0
147
0.0
147
0.0
147
0.0008202099737533
147
0.0
147
0.0
147
0.0
147
0.0
147
1.0
147
0.0
147
0.0
147
0.0
147
0.0
147
1.0
  0
MATERIAL
  5
13B8
102
{ACAD_XDICTIONARY
360
13B9
102
}
102
{ACAD_REACTORS
330
13B7
102
}
330
13B7
100
AcDbMaterial
  1
ByLayer
 72
     0
 43
0.0008202099737533
 43
0.0
 43
0.0
 43
0.0
 43
0.0
 43
0.0008202099737533
 43
0.0
 43
0.0
 43
0.0
 43
0.0
 43
1.0
 43
0.0
 43
0.0
 43
0.0
 43
0.0
 43
1.0
 77
     0
 47
0.0008202099737533
 47
0.0
 47
0.0
 47
0.0
 47
0.0
 47
0.0008202099737533
 47
0.0
 47
0.0
 47
0.0
 47
0.0
 47
1.0
 47
0.0
 47
0.0
 47
0.0
 47
0.0
 47
1.0
171
     0
 49
0.0008202099737533
 49
0.0
 49
0.0
 49
0.0
 49
0.0
 49
0.0008202099737533
 49
0.0
 49
0.0
 49
0.0
 49
0.0
 49
1.0
 49
0.0
 49
0.0
 49
0.0
 49
0.0
 49
1.0
175
     0
142
0.0008202099737533
142
0.0
142
0.0
142
0.0
142
0.0
142
0.0008202099737533
142
0.0
142
0.0
142
0.0
142
0.0
142
1.0
142
0.0
142
0.0
142
0.0
142
0.0
142
1.0
179
     0
144
0.0008202099737533
144
0.0
144
0.0
144
0.0
144
0.0
144
0.0008202099737533
144
0.0
144
0.0
144
0.0
144
0.0
144
1.0
144
0.0
144
0.0
144
0.0
144
0.0
144
1.0
147
0.0008202099737533
147
0.0
147
0.0
147
0.0
147
0.0
147
0.0008202099737533
147
0.0
147
0.0
147
0.0
147
0.0
147
1.0
147
0.0
147
0.0
147
0.0
147
0.0
147
1.0
  0
MATERIAL
  5
13C8
102
{ACAD_XDICTIONARY
360
13C9
102
}
102
{ACAD_REACTORS
330
13B7
102
}
330
13B7
100
AcDbMaterial
  1
Global
 72
     0
 43
0.0008202099737533
 43
0.0
 43
0.0
 43
0.0
 43
0.0
 43
0.0008202099737533
 43
0.0
 43
0.0
 43
0.0
 43
0.0
 43
1.0
 43
0.0
 43
0.0
 43
0.0
 43
0.0
 43
1.0
 77
     0
 47
0.0008202099737533
 47
0.0
 47
0.0
 47
0.0
 47
0.0
 47
0.0008202099737533
 47
0.0
 47
0.0
 47
0.0
 47
0.0
 47
1.0
 47
0.0
 47
0.0
 47
0.0
 47
0.0
 47
1.0
171
     0
 49
0.0008202099737533
 49
0.0
 49
0.0
 49
0.0
 49
0.0
 49
0.0008202099737533
 49
0.0
 49
0.0
 49
0.0
 49
0.0
 49
1.0
 49
0.0
 49
0.0
 49
0.0
 49
0.0
 49
1.0
175
     0
142
0.0008202099737533
142
0.0
142
0.0
142
0.0
142
0.0
142
0.0008202099737533
142
0.0
142
0.0
142
0.0
142
0.0
142
1.0
142
0.0
142
0.0
142
0.0
142
0.0
142
1.0
179
     0
144
0.0008202099737533
144
0.0
144
0.0
144
0.0
144
0.0
144
0.0008202099737533
144
0.0
144
0.0
144
0.0
144
0.0
144
1.0
144
0.0
144
0.0
144
0.0
144
0.0
144
1.0
147
0.0008202099737533
147
0.0
147
0.0
147
0.0
147
0.0
147
0.0008202099737533
147
0.0
147
0.0
147
0.0
147
0.0
147
1.0
147
0.0
147
0.0
147
0.0
147
0.0
147
1.0
  0
MLEADERSTYLE
  5
13FF
102
{ACAD_XDICTIONARY
360
187C
102
}
102
{ACAD_REACTORS
330
13FE
102
}
330
13FE
100
AcDbMLeaderStyle
170
     2
171
     1
172
     0
 90
        2
 40
0.0
 41
0.0
173
     1
 91
-1056964608
340
ABF
 92
       -2
290
     1
 42
2.0
291
     1
 43
0.36
  3
Standard
 44
4.0
300

342
9
174
     1
178
     6
175
     1
176
     0
 93
-1056964608
 45
4.0
292
     0
297
     0
 46
4.0
 94
-1056964608
 47
1.0
 49
1.0
140
1.0
293
     1
141
0.0
294
     1
177
     0
142
1.0
295
     0
296
     0
143
0.125
1001
ACAD_MLEADERVER
1070
     2
  0
MLINESTYLE
  5
ACB
102
{ACAD_REACTORS
330
AC9
102
}
330
AC9
100
AcDbMlineStyle
  2
STANDARD
 70
     0
  3

 62
   256
 51
90.0
 52
90.0
 71
     2
 49
0.5
 62
   256
  6
BYLAYER
 49
-0.5
 62
   256
  6
BYLAYER
  0
ACDBPLACEHOLDER
  5
5
102
{ACAD_REACTORS
330
6
102
}
330
6
  0
SCALE
  5
13ED
102
{ACAD_REACTORS
330
13EC
102
}
330
13EC
100
AcDbScale
 70
     0
300
1:1
140
1.0
141
1.0
290
     1
  0
SCALE
  5
13EE
102
{ACAD_REACTORS
330
13EC
102
}
330
13EC
100
AcDbScale
 70
     0
300
1:2
140
1.0
141
2.0
290
     0
  0
SCALE
  5
13EF
102
{ACAD_REACTORS
330
13EC
102
}
330
13EC
100
AcDbScale
 70
     0
300
1:4
140
1.0
141
4.0
290
     0
  0
SCALE
  5
13F0
102
{ACAD_REACTORS
330
13EC
102
}
330
13EC
100
AcDbScale
 70
     0
300
1:5
140
1.0
141
5.0
290
     0
  0
SCALE
  5
13F1
102
{ACAD_REACTORS
330
13EC
102
}
330
13EC
100
AcDbScale
 70
     0
300
1:8
140
1.0
141
8.0
290
     0
  0
SCALE
  5
13F2
102
{ACAD_REACTORS
330
13EC
102
}
330
13EC
100
AcDbScale
 70
     0
300
1:10
140
1.0
141
10.0
290
     0
  0
SCALE
  5
13F3
102
{ACAD_REACTORS
330
13EC
102
}
330
13EC
100
AcDbScale
 70
     0
300
1:16
140
1.0
141
16.0
290
     0
  0
SCALE
  5
13F4
102
{ACAD_REACTORS
330
13EC
102
}
330
13EC
100
AcDbScale
 70
     0
300
1:20
140
1.0
141
20.0
290
     0
  0
SCALE
  5
13F5
102
{ACAD_REACTORS
330
13EC
102
}
330
13EC
100
AcDbScale
 70
     0
300
1:30
140
1.0
141
30.0
290
     0
  0
SCALE
  5
13F6
102
{ACAD_REACTORS
330
13EC
102
}
330
13EC
100
AcDbScale
 70
     0
300
1:40
140
1.0
141
40.0
290
     0
  0
SCALE
  5
13F7
102
{ACAD_REACTORS
330
13EC
102
}
330
13EC
100
AcDbScale
 70
     0
300
1:50
140
1.0
141
50.0
290
     0
  0
SCALE
  5
13F8
102
{ACAD_REACTORS
330
13EC
102
}
330
13EC
100
AcDbScale
 70
     0
300
1:100
140
1.0
141
100.0
290
     0
  0
SCALE
  5
13F9
102
{ACAD_REACTORS
330
13EC
102
}
330
13EC
100
AcDbScale
 70
     0
300
2:1
140
2.0
141
1.0
290
     0
  0
SCALE
  5
13FA
102
{ACAD_REACTORS
330
13EC
102
}
330
13EC
100
AcDbScale
 70
     0
300
4:1
140
4.0
141
1.0
290
     0
  0
SCALE
  5
13FB
102
{ACAD_REACTORS
330
13EC
102
}
330
13EC
100
AcDbScale
 70
     0
300
8:1
140
8.0
141
1.0
290
     0
  0
SCALE
  5
13FC
102
{ACAD_REACTORS
330
13EC
102
}
330
13EC
100
AcDbScale
 70
     0
300
10:1
140
10.0
141
1.0
290
     0
  0
SCALE
  5
13FD
102
{ACAD_REACTORS
330
13EC
102
}
330
13EC
100
AcDbScale
 70
     0
300
100:1
140
100.0
141
1.0
290
     0
  0
ACDBSECTIONVIEWSTYLE
  5
152E
102
{ACAD_XDICTIONARY
360
1882
102
}
102
{ACAD_REACTORS
330
1400
102
}
330
1400
100
AcDbModelDocViewStyle
 70
     0
  3
Imperial24
290
     0
100
AcDbSectionViewStyle
 70
     0
 71
     0
 90
       78
 71
     1
340
9
 40
0.24
340
0
340
0
 40
0.24
300
I, O, Q, S, X, Z
 40
0.48
 90
        3
 40
0.18
 90
        1
 71
     2
340
8
 90
       25
340
8
 90
       50
 40
0.24
 40
0.0
 40
0.24
 71
     3
340
9
 40
0.24
 90
        1
 40
0.75
 90
        1
300
%<\AcVar ViewType \f "%tc1">% %<\AcVar ViewSectionStartId>%-%<\AcVar ViewSectionEndId>%\PSCALE %<\AcVar ViewScale \f "%sn">%
 71
     4
300
ANSI31
 40
1.0
 90
        0
290
     0
290
     0
 90
        6
 40
0.0
 40
1.570796326794896
 40
0.2617993877991494
 40
1.308996938995747
 40
-0.2617993877991494
 40
1.832595714594046
  0
ACDBSECTIONVIEWSTYLE
  5
1401
102
{ACAD_XDICTIONARY
360
187E
102
}
102
{ACAD_REACTORS
330
1400
102
}
330
1400
100
AcDbModelDocViewStyle
 70
     0
  3
Metric50
290
     0
100
AcDbSectionViewStyle
 70
     0
 71
     0
 90
      102
 71
     1
340
9
 40
5.0
340
0
340
0
 40
5.0
300
I, O, Q, S, X, Z
 40
10.0
 90
        0
 40
2.5
 90
        0
 71
     2
340
8
 90
       25
340
8
 90
       50
 40
5.0
 40
2.5
 40
5.0
 71
     3
340
9
 40
5.0
 90
        0
 40
15.0
 90
        1
300
%<\AcVar ViewSectionStartId>%-%<\AcVar ViewSectionEndId>% (%<\AcVar ViewScale \f "%sn">%)
 71
     4
300
ANSI31
 40
1.0
 90
        0
290
     0
290
     0
 90
        6
 40
0.0
 40
1.570796326794896
 40
0.2617993877991494
 40
1.308996938995747
 40
-0.2617993877991494
 40
1.832595714594046
  0
TABLESTYLE
  5
13EB
102
{ACAD_XDICTIONARY
360
141D
102
}
102
{ACAD_REACTORS
330
13EA
102
}
330
13EA
100
AcDbTableStyle
  3
Standard
 70
     0
 71
     0
 40
1.5
 41
1.5
280
     0
281
     0
  7
Standard
140
4.5
170
     2
 62
     0
 63
     7
283
     0
274
    -2
284
     1
 64
     0
275
    -2
285
     1
 65
     0
276
    -2
286
     1
 66
     0
277
    -2
287
     1
 67
     0
278
    -2
288
     1
 68
     0
279
    -2
289
     1
 69
     0
  7
Standard
140
6.0
170
     5
 62
     0
 63
     7
283
     0
274
    -2
284
     1
 64
     0
275
    -2
285
     1
 65
     0
276
    -2
286
     1
 66
     0
277
    -2
287
     1
 67
     0
278
    -2
288
     1
 68
     0
279
    -2
289
     1
 69
     0
  7
Standard
140
4.5
170
     5
 62
     0
 63
     7
283
     0
274
    -2
284
     1
 64
     0
275
    -2
285
     1
 65
     0
276
    -2
286
     1
 66
     0
277
    -2
287
     1
 67
     0
278
    -2
288
     1
 68
     0
279
    -2
289
     1
 69
     0
  0
VISUALSTYLE
  5
13D6
102
{ACAD_XDICTIONARY
360
1855
102
}
102
{ACAD_REACTORS
330
13D0
102
}
330
13D0
100
AcDbVisualStyle
  2
2dWireframe
 70
     4
 71
     0
 72
     2
 73
     0
 90
        0
 40
-0.6
 41
-30.0
 62
     5
 63
     7
 74
     1
 91
        4
 64
     7
 65
   257
 75
     1
175
     1
 42
1.0
 92
        0
 66
   257
 43
1.0
 76
     1
 77
     6
 78
     2
 67
     7
 79
     5
170
     0
171
     0
290
     0
174
     0
 93
        1
 44
0.0
173
     0
291
     0
 45
0.0
1001
ACAD
1000
AcDbSavedByObjectVersion
1070
     0
  0
VISUALSTYLE
  5
13D5
102
{ACAD_XDICTIONARY
360
1853
102
}
102
{ACAD_REACTORS
330
13D0
102
}
330
13D0
100
AcDbVisualStyle
  2
Basic
 70
     7
 71
     1
 72
     0
 73
     1
 90
        0
 40
-0.6
 41
-30.0
 62
     5
 63
     7
 74
     0
 91
        4
 64
     7
 65
   257
 75
     1
175
     1
 42
1.0
 92
        8
 66
     7
 43
1.0
 76
     1
 77
     6
 78
     2
 67
     7
 79
     5
170
     0
171
     0
290
     0
174
     0
 93
        1
 44
0.0
173
     0
291
     1
 45
0.0
1001
ACAD
1000
AcDbSavedByObjectVersion
1070
     0
  0
VISUALSTYLE
  5
13DC
102
{ACAD_XDICTIONARY
360
1861
102
}
102
{ACAD_REACTORS
330
13D0
102
}
330
13D0
100
AcDbVisualStyle
  2
Brighten
 70
    12
 71
     2
 72
     2
 73
     0
 90
        0
 40
-0.6
 41
-30.0
 62
     5
 63
     7
 74
     1
 91
        4
 64
     7
 65
   257
 75
     1
175
     1
 42
1.0
 92
        8
 66
     7
 43
1.0
 76
     1
 77
     6
 78
     2
 67
     7
 79
     5
170
     0
171
     0
290
     0
174
     0
 93
        1
 44
50.0
173
     0
291
     1
 45
0.0
1001
ACAD
1000
AcDbSavedByObjectVersion
1070
     0
  0
VISUALSTYLE
  5
13E0
102
{ACAD_XDICTIONARY
360
1869
102
}
102
{ACAD_REACTORS
330
13D0
102
}
330
13D0
100
AcDbVisualStyle
  2
ColorChange
 70
    16
 71
     2
 72
     2
 73
     3
 90
        0
 40
-0.6
 41
-30.0
 62
     5
 63
     8
 74
     1
 91
        4
 64
     7
 65
   257
 75
     1
175
     1
 42
1.0
 92
        8
 66
     8
 43
1.0
 76
     1
 77
     6
 78
     2
 67
     7
 79
     5
170
     0
171
     0
290
     0
174
     0
 93
        1
 44
0.0
173
     0
291
     1
 45
0.0
1001
ACAD
1000
AcDbSavedByObjectVersion
1070
     0
  0
VISUALSTYLE
  5
13D9
102
{ACAD_XDICTIONARY
360
185B
102
}
102
{ACAD_REACTORS
330
13D0
102
}
330
13D0
100
AcDbVisualStyle
  2
Conceptual
 70
     9
 71
     3
 72
     2
 73
     0
 90
        0
 40
-0.6
 41
-30.0
 62
     5
 63
     7
 74
     2
 91
        2
 64
     7
 65
   257
 75
     1
175
     1
 42
179.0
 92
        8
 66
     7
 43
1.0
 76
     1
 77
     6
 78
     2
 67
     7
 79
     3
170
     0
171
     0
290
     0
174
     0
 93
        1
 44
0.0
173
     0
291
     0
 45
0.0
1001
ACAD
1000
AcDbSavedByObjectVersion
1070
     0
  0
VISUALSTYLE
  5
13DB
102
{ACAD_XDICTIONARY
360
185F
102
}
102
{ACAD_REACTORS
330
13D0
102
}
330
13D0
100
AcDbVisualStyle
  2
Dim
 70
    11
 71
     2
 72
     2
 73
     0
 90
        0
 40
-0.6
 41
-30.0
 62
     5
 63
     7
 74
     1
 91
        4
 64
     7
 65
   257
 75
     1
175
     1
 42
1.0
 92
        8
 66
     7
 43
1.0
 76
     1
 77
     6
 78
     2
 67
     7
 79
     5
170
     0
171
     0
290
     0
174
     0
 93
        1
 44
-50.0
173
     0
291
     1
 45
0.0
1001
ACAD
1000
AcDbSavedByObjectVersion
1070
     0
  0
VISUALSTYLE
  5
13E8
102
{ACAD_XDICTIONARY
360
1879
102
}
102
{ACAD_REACTORS
330
13D0
102
}
330
13D0
100
AcDbVisualStyle
  2
EdgeColorOff
 70
    22
 71
     2
 72
     2
 73
     0
 90
        0
 40
-0.6
 41
-30.0
 62
     5
 63
     7
 74
     1
 91
        4
 64
     7
 65
   257
 75
     1
175
     1
 42
1.0
 92
        8
 66
     7
 43
1.0
 76
     1
 77
     6
 78
     2
 67
     7
 79
     5
170
     0
171
     0
290
     0
174
     0
 93
        1
 44
0.0
173
     0
291
     1
 45
0.0
1001
ACAD
1000
AcDbSavedByObjectVersion
1070
     0
  0
VISUALSTYLE
  5
13DF
102
{ACAD_XDICTIONARY
360
1867
102
}
102
{ACAD_REACTORS
330
13D0
102
}
330
13D0
100
AcDbVisualStyle
  2
Facepattern
 70
    15
 71
     2
 72
     2
 73
     0
 90
        0
 40
-0.6
 41
-30.0
 62
     5
 63
     7
 74
     1
 91
        4
 64
     7
 65
   257
 75
     1
175
     1
 42
1.0
 92
        8
 66
     7
 43
1.0
 76
     1
 77
     6
 78
     2
 67
     7
 79
     5
170
     0
171
     0
290
     0
174
     0
 93
        1
 44
0.0
173
     0
291
     1
 45
0.0
1001
ACAD
1000
AcDbSavedByObjectVersion
1070
     0
  0
VISUALSTYLE
  5
13D1
102
{ACAD_XDICTIONARY
360
184B
102
}
102
{ACAD_REACTORS
330
13D0
102
}
330
13D0
100
AcDbVisualStyle
  2
Flat
 70
     0
 71
     2
 72
     1
 73
     1
 90
        2
 40
-0.6
 41
30.0
 62
     5
 63
     7
 74
     0
 91
        0
 64
     7
 65
   257
 75
     1
175
     1
 42
1.0
 92
        8
 66
     7
 43
1.0
 76
     1
 77
     6
 78
     2
 67
     7
 79
     5
170
     0
171
     0
290
     0
174
     0
 93
       13
 44
0.0
173
     0
291
     1
 45
0.0
1001
ACAD
1000
AcDbSavedByObjectVersion
1070
     0
  0
VISUALSTYLE
  5
13D2
102
{ACAD_XDICTIONARY
360
184D
102
}
102
{ACAD_REACTORS
330
13D0
102
}
330
13D0
100
AcDbVisualStyle
  2
FlatWithEdges
 70
     1
 71
     2
 72
     1
 73
     1
 90
        2
 40
-0.6
 41
30.0
 62
     5
 63
     7
 74
     1
 91
        0
 64
     7
 65
   257
 75
     1
175
     1
 42
1.0
 92
        0
 66
   257
 43
1.0
 76
     1
 77
     6
 78
     2
 67
     7
 79
     5
170
     0
171
     0
290
     0
174
     0
 93
       13
 44
0.0
173
     0
291
     1
 45
0.0
1001
ACAD
1000
AcDbSavedByObjectVersion
1070
     0
  0
VISUALSTYLE
  5
13D3
102
{ACAD_XDICTIONARY
360
184F
102
}
102
{ACAD_REACTORS
330
13D0
102
}
330
13D0
100
AcDbVisualStyle
  2
Gouraud
 70
     2
 71
     2
 72
     2
 73
     1
 90
        2
 40
-0.6
 41
30.0
 62
     5
 63
     7
 74
     0
 91
        0
 64
     7
 65
   257
 75
     1
175
     1
 42
1.0
 92
        0
 66
     7
 43
1.0
 76
     1
 77
     6
 78
     2
 67
     7
 79
     5
170
     0
171
     0
290
     0
174
     0
 93
       13
 44
0.0
173
     0
291
     1
 45
0.0
1001
ACAD
1000
AcDbSavedByObjectVersion
1070
     0
  0
VISUALSTYLE
  5
13D4
102
{ACAD_XDICTIONARY
360
1851
102
}
102
{ACAD_REACTORS
330
13D0
102
}
330
13D0
100
AcDbVisualStyle
  2
GouraudWithEdges
 70
     3
 71
     2
 72
     2
 73
     1
 90
        2
 40
-0.6
 41
30.0
 62
     5
 63
     7
 74
     1
 91
        0
 64
     7
 65
   257
 75
     1
175
     1
 42
1.0
 92
        0
 66
   257
 43
1.0
 76
     1
 77
     6
 78
     2
 67
     7
 79
     5
170
     0
171
     0
290
     0
174
     0
 93
       13
 44
0.0
173
     0
291
     1
 45
0.0
1001
ACAD
1000
AcDbSavedByObjectVersion
1070
     0
  0
VISUALSTYLE
  5
13D8
102
{ACAD_XDICTIONARY
360
1859
102
}
102
{ACAD_REACTORS
330
13D0
102
}
330
13D0
100
AcDbVisualStyle
  2
Hidden
 70
     6
 71
     1
 72
     2
 73
     2
 90
        0
 40
-0.6
 41
-30.0
 62
     5
 63
     7
 74
     2
 91
        2
 64
     7
 65
   257
 75
     2
175
     1
 42
40.0
 92
        0
 66
   257
 43
1.0
 76
     1
 77
     6
 78
     2
 67
     7
 79
     3
170
     0
171
     0
290
     0
174
     0
 93
        1
 44
0.0
173
     0
291
     0
 45
0.0
1001
ACAD
1000
AcDbSavedByObjectVersion
1070
     0
  0
VISUALSTYLE
  5
13E6
102
{ACAD_XDICTIONARY
360
1875
102
}
102
{ACAD_REACTORS
330
13D0
102
}
330
13D0
100
AcDbVisualStyle
  2
JitterOff
 70
    20
 71
     2
 72
     2
 73
     0
 90
        0
 40
-0.6
 41
-30.0
 62
     5
 63
     7
 74
     1
 91
        4
 64
     7
 65
   257
 75
     1
175
     1
 42
1.0
 92
       10
 66
     7
 43
1.0
 76
     1
 77
     6
 78
     2
 67
     7
 79
     5
170
     0
171
     0
290
     0
174
     0
 93
        1
 44
0.0
173
     0
291
     1
 45
0.0
1001
ACAD
1000
AcDbSavedByObjectVersion
1070
     0
  0
VISUALSTYLE
  5
13DE
102
{ACAD_XDICTIONARY
360
1865
102
}
102
{ACAD_REACTORS
330
13D0
102
}
330
13D0
100
AcDbVisualStyle
  2
Linepattern
 70
    14
 71
     2
 72
     2
 73
     0
 90
        0
 40
-0.6
 41
-30.0
 62
     5
 63
     7
 74
     1
 91
        4
 64
     7
 65
   257
 75
     7
175
     7
 42
1.0
 92
        8
 66
     7
 43
1.0
 76
     1
 77
     6
 78
     2
 67
     7
 79
     5
170
     0
171
     0
290
     0
174
     0
 93
        1
 44
0.0
173
     0
291
     1
 45
0.0
1001
ACAD
1000
AcDbSavedByObjectVersion
1070
     0
  0
VISUALSTYLE
  5
13E7
102
{ACAD_XDICTIONARY
360
1877
102
}
102
{ACAD_REACTORS
330
13D0
102
}
330
13D0
100
AcDbVisualStyle
  2
OverhangOff
 70
    21
 71
     2
 72
     2
 73
     0
 90
        0
 40
-0.6
 41
-30.0
 62
     5
 63
     7
 74
     1
 91
        4
 64
     7
 65
   257
 75
     1
175
     1
 42
1.0
 92
        9
 66
     7
 43
1.0
 76
     1
 77
     6
 78
     2
 67
     7
 79
     5
170
     0
171
     0
290
     0
174
     0
 93
        1
 44
0.0
173
     0
291
     1
 45
0.0
1001
ACAD
1000
AcDbSavedByObjectVersion
1070
     0
  0
VISUALSTYLE
  5
13DA
102
{ACAD_XDICTIONARY
360
185D
102
}
102
{ACAD_REACTORS
330
13D0
102
}
330
13D0
100
AcDbVisualStyle
  2
Realistic
 70
     8
 71
     2
 72
     2
 73
     0
 90
        2
 40
-0.6
 41
30.0
 62
     5
 63
     7
 74
     0
 91
        0
 64
     7
 65
   257
 75
     1
175
     1
 42
1.0
 92
        8
 66
   257
 43
1.0
 76
     1
 77
     6
 78
     2
 67
     7
 79
     3
170
     0
171
     0
290
     0
174
     0
 93
       13
 44
0.0
173
     0
291
     0
 45
0.0
1001
ACAD
1000
AcDbSavedByObjectVersion
1070
     0
  0
VISUALSTYLE
  5
13E5
102
{ACAD_XDICTIONARY
360
1873
102
}
102
{ACAD_REACTORS
330
13D0
102
}
330
13D0
100
AcDbVisualStyle
  2
Shaded
 70
    27
 71
     2
 72
     2
 73
     1
 90
        2
 40
-0.6
 41
30.0
 62
     5
 63
     7
 74
     0
 91
        4
 64
     7
 65
   257
 75
     1
175
     1
 42
1.0
 92
        8
 66
   257
 43
1.0
 76
     1
 77
     6
 78
     2
 67
     8
 79
     3
170
     0
171
     0
290
     0
174
     0
 93
        5
 44
0.0
173
     0
291
     0
 45
0.0
1001
ACAD
1000
AcDbSavedByObjectVersion
1070
     0
  0
VISUALSTYLE
  5
13E4
102
{ACAD_XDICTIONARY
360
1871
102
}
102
{ACAD_REACTORS
330
13D0
102
}
330
13D0
100
AcDbVisualStyle
  2
Shaded with edges
 70
    26
 71
     2
 72
     2
 73
     1
 90
        2
 40
-0.6
 41
30.0
 62
     5
 63
     7
 74
     1
 91
       10
 64
     7
 65
   257
 75
     2
175
     1
 42
1.0
 92
        8
 66
   257
 43
1.0
 76
     1
 77
     6
 78
     2
 67
     7
 79
     3
170
     0
171
     0
290
     0
174
     0
 93
        5
 44
0.0
173
     0
291
     0
 45
0.0
1001
ACAD
1000
AcDbSavedByObjectVersion
1070
     0
  0
VISUALSTYLE
  5
13E1
102
{ACAD_XDICTIONARY
360
186B
102
}
102
{ACAD_REACTORS
330
13D0
102
}
330
13D0
100
AcDbVisualStyle
  2
Shades of Gray
 70
    23
 71
     2
 72
     2
 73
     3
 90
        0
 40
-0.6
 41
-30.0
 62
     5
 63
     7
 74
     2
 91
        2
 64
     7
 65
     7
 75
     1
175
     1
 42
40.0
 92
        8
 66
     7
 43
1.0
 76
     1
 77
     6
 78
     2
 67
     7
 79
     3
170
     0
171
     0
290
     0
174
     0
 93
        1
 44
0.0
173
     0
291
     0
 45
0.0
1001
ACAD
1000
AcDbSavedByObjectVersion
1070
     0
  0
VISUALSTYLE
  5
13E2
102
{ACAD_XDICTIONARY
360
186D
102
}
102
{ACAD_REACTORS
330
13D0
102
}
330
13D0
100
AcDbVisualStyle
  2
Sketchy
 70
    24
 71
     1
 72
     2
 73
     2
 90
        0
 40
-0.6
 41
-30.0
 62
     5
 63
     7
 74
     2
 91
        2
 64
     7
 65
     7
 75
     1
175
     1
 42
40.0
 92
       11
 66
     7
 43
1.0
 76
     1
 77
     6
 78
     2
 67
     7
 79
     6
170
     0
171
     0
290
     0
174
     0
 93
        1
 44
0.0
173
     0
291
     0
 45
0.0
1001
ACAD
1000
AcDbSavedByObjectVersion
1070
     0
  0
VISUALSTYLE
  5
13DD
102
{ACAD_XDICTIONARY
360
1863
102
}
102
{ACAD_REACTORS
330
13D0
102
}
330
13D0
100
AcDbVisualStyle
  2
Thicken
 70
    13
 71
     2
 72
     2
 73
     0
 90
        0
 40
-0.6
 41
-30.0
 62
     5
 63
     7
 74
     1
 91
        4
 64
     7
 65
   257
 75
     1
175
     1
 42
1.0
 92
       12
 66
     7
 43
1.0
 76
     1
 77
     6
 78
     2
 67
     7
 79
     5
170
     0
171
     0
290
     0
174
     0
 93
        1
 44
0.0
173
     0
291
     1
 45
0.0
1001
ACAD
1000
AcDbSavedByObjectVersion
1070
     0
  0
VISUALSTYLE
  5
13D7
102
{ACAD_XDICTIONARY
360
1857
102
}
102
{ACAD_REACTORS
330
13D0
102
}
330
13D0
100
AcDbVisualStyle
  2
Wireframe
 70
     5
 71
     0
 72
     2
 73
     0
 90
        0
 40
-0.6
 41
-30.0
 62
     5
 63
     7
 74
     1
 91
        4
 64
     7
 65
   257
 75
     1
175
     1
 42
1.0
 92
        0
 66
   257
 43
1.0
 76
     1
 77
     6
 78
     2
 67
     7
 79
     3
170
     0
171
     0
290
     0
174
     0
 93
        1
 44
0.0
173
     0
291
     0
 45
0.0
1001
ACAD
1000
AcDbSavedByObjectVersion
1070
     0
  0
VISUALSTYLE
  5
13E3
102
{ACAD_XDICTIONARY
360
186F
102
}
102
{ACAD_REACTORS
330
13D0
102
}
330
13D0
100
AcDbVisualStyle
  2
X-Ray
 70
    25
 71
     2
 72
     2
 73
     1
 90
        1
 40
0.5
 41
-30.0
 62
     5
 63
     7
 74
     1
 91
        0
 64
     7
 65
   257
 75
     1
175
     1
 42
1.0
 92
        8
 66
     7
 43
1.0
 76
     1
 77
     6
 78
     2
 67
     7
 79
     3
170
     0
171
     0
290
     0
174
     0
 93
       13
 44
0.0
173
     0
291
     0
 45
0.0
1001
ACAD
1000
AcDbSavedByObjectVersion
1070
     0
  0
DICTIONARYVAR
  5
1468
102
{ACAD_REACTORS
330
13A6
102
}
330
13A6
100
DictionaryVariables
280
     0
  1
1:1
  0
DICTIONARYVAR
  5
1465
102
{ACAD_REACTORS
330
13A6
102
}
330
13A6
100
DictionaryVariables
280
     0
  1
STANDARD
  0
DICTIONARYVAR
  5
1464
102
{ACAD_REACTORS
330
13A6
102
}
330
13A6
100
DictionaryVariables
280
     0
  1
STANDARD
  0
DICTIONARYVAR
  5
1466
102
{ACAD_REACTORS
330
13A6
102
}
330
13A6
100
DictionaryVariables
280
     0
  1
Metric50
  0
DICTIONARYVAR
  5
1467
102
{ACAD_REACTORS
330
13A6
102
}
330
13A6
100
DictionaryVariables
280
     0
  1
Metric50
  0
DICTIONARYVAR
  5
146A
102
{ACAD_REACTORS
330
13A6
102
}
330
13A6
100
DictionaryVariables
280
     0
  1
1
  0
DICTIONARYVAR
  5
1469
102
{ACAD_REACTORS
330
13A6
102
}
330
13A6
100
DictionaryVariables
280
     0
  1
0
  0
DICTIONARYVAR
  5
13A7
102
{ACAD_REACTORS
330
13A6
102
}
330
13A6
100
DictionaryVariables
280
     0
  1
96
  0
DICTIONARYVAR
  5
183E
102
{ACAD_REACTORS
330
13A6
102
}
330
13A6
100
DictionaryVariables
280
     0
  1
2
  0
XRECORD
  5
170A
102
{ACAD_XDICTIONARY
360
170B
102
}
102
{ACAD_REACTORS
330
147A
102
}
330
147A
100
AcDbXrecord
280
     1
 91
      535
301

290
     0
302
嵩上断面
330
14D0
 90
        8
 62
   112
370
    13
331
C9
  1
色_112
440
        0
330
1384
 90
        8
 62
    51
370
    13
331
8
  1
色_51
440
        0
330
1383
 90
        8
 62
   112
370
    13
331
8
  1
色_112
440
        0
330
10FD
 90
        8
 62
     3
370
     9
331
8
  1
色_3
440
        0
330
E2
 90
        0
 62
     7
370
    -3
331
8
  1
色_7
440
        0
330
11
 90
        8
 62
     7
370
    -3
331
8
  1
色_7
440
        0
330
67
 90
        8
 62
     4
370
     5
331
8
  1
色_4
440
        0
330
2E
 90
        8
 62
    31
370
     9
331
8
  1
色_31
440
        0
330
4
 90
        8
 62
     2
370
     9
331
8
  1
色_2
440
        0
330
6A
 90
        8
 62
     7
370
    13
331
8
  1
色_7
440
        0
330
64
 90
        8
 62
     7
370
    -3
331
8
  1
色_7
440
        0
  0
ACDBASSOCNETWORK
  5
1752
102
{ACAD_REACTORS
330
1751
102
}
330
1751
100
AcDbAssocAction
 90
        1
 90
        1
330
1754
360
0
 90
        1
 90
        0
 90
        0
100
AcDbAssocNetwork
 90
        0
 90
        2
 90
        2
360
1755
360
17D6
 90
        2
330
1755
330
17D6
  0
XRECORD
  5
1888
102
{ACAD_REACTORS
330
1887
102
}
330
1887
100
AcDbXrecord
280
     1
1070
     0
1070
     1
1070
     1
  0
XRECORD
  5
188B
102
{ACAD_REACTORS
330
188A
102
}
330
188A
100
AcDbXrecord
280
     1
1070
     0
1070
     1
1070
     1
  0
DICTIONARY
  5
1884
330
152F
100
AcDbDictionary
280
     1
281
     1
  3
ACAD_XREC_ROUNDTRIP
360
1885
  0
DICTIONARY
  5
1880
330
1403
100
AcDbDictionary
280
     1
281
     1
  3
ACAD_XREC_ROUNDTRIP
360
1881
  0
DICTIONARY
  5
1844
330
AB4
100
AcDbDictionary
280
     1
281
     1
  3
ACAD_XREC_ROUNDTRIP
360
1845
  0
DICTIONARY
  5
1846
330
ABA
100
AcDbDictionary
280
     1
281
     1
  3
ACAD_XREC_ROUNDTRIP
360
1847
  0
DICTIONARY
  5
1842
330
AAD
100
AcDbDictionary
280
     1
281
     1
  3
ACAD_XREC_ROUNDTRIP
360
1843
  0
DICTIONARY
  5
13C1
330
13C0
100
AcDbDictionary
280
     1
281
     1
  3
ACAD_XREC_ROUNDTRIP
360
1849
  3
BUMPTILE
360
13C3
  3
DIFFUSETILE
360
13C2
  3
OPACITYTILE
360
13C6
  3
REFLECTIONTILE
360
13C5
  3
REFRACTIONTILE
360
13C7
  3
SPECULARTILE
360
13C4
  0
DICTIONARY
  5
13B9
330
13B8
100
AcDbDictionary
280
     1
281
     1
  3
ACAD_XREC_ROUNDTRIP
360
1848
  3
BUMPTILE
360
13BB
  3
DIFFUSETILE
360
13BA
  3
OPACITYTILE
360
13BE
  3
REFLECTIONTILE
360
13BD
  3
REFRACTIONTILE
360
13BF
  3
SPECULARTILE
360
13BC
  0
DICTIONARY
  5
13C9
330
13C8
100
AcDbDictionary
280
     1
281
     1
  3
ACAD_XREC_ROUNDTRIP
360
184A
  3
BUMPTILE
360
13CB
  3
DIFFUSETILE
360
13CA
  3
OPACITYTILE
360
13CE
  3
REFLECTIONTILE
360
13CD
  3
REFRACTIONTILE
360
13CF
  3
SPECULARTILE
360
13CC
  0
DICTIONARY
  5
187C
330
13FF
100
AcDbDictionary
280
     1
281
     1
  3
ACAD_XREC_ROUNDTRIP
360
187D
  0
DICTIONARY
  5
1882
330
152E
100
AcDbDictionary
280
     1
281
     1
  3
ACAD_XREC_ROUNDTRIP
360
1883
  0
DICTIONARY
  5
187E
330
1401
100
AcDbDictionary
280
     1
281
     1
  3
ACAD_XREC_ROUNDTRIP
360
187F
  0
DICTIONARY
  5
141D
330
13EB
100
AcDbDictionary
280
     1
281
     1
  3
ACAD_ROUNDTRIP_2008_TABLESTYLE_CELLSTYLEMAP
360
183F
  3
ACAD_XREC_ROUNDTRIP
360
187B
  0
DICTIONARY
  5
1855
330
13D6
100
AcDbDictionary
280
     1
281
     1
  3
ACAD_XREC_ROUNDTRIP
360
1856
  0
DICTIONARY
  5
1853
330
13D5
100
AcDbDictionary
280
     1
281
     1
  3
ACAD_XREC_ROUNDTRIP
360
1854
  0
DICTIONARY
  5
1861
330
13DC
100
AcDbDictionary
280
     1
281
     1
  3
ACAD_XREC_ROUNDTRIP
360
1862
  0
DICTIONARY
  5
1869
330
13E0
100
AcDbDictionary
280
     1
281
     1
  3
ACAD_XREC_ROUNDTRIP
360
186A
  0
DICTIONARY
  5
185B
330
13D9
100
AcDbDictionary
280
     1
281
     1
  3
ACAD_XREC_ROUNDTRIP
360
185C
  0
DICTIONARY
  5
185F
330
13DB
100
AcDbDictionary
280
     1
281
     1
  3
ACAD_XREC_ROUNDTRIP
360
1860
  0
DICTIONARY
  5
1879
330
13E8
100
AcDbDictionary
280
     1
281
     1
  3
ACAD_XREC_ROUNDTRIP
360
187A
  0
DICTIONARY
  5
1867
330
13DF
100
AcDbDictionary
280
     1
281
     1
  3
ACAD_XREC_ROUNDTRIP
360
1868
  0
DICTIONARY
  5
184B
330
13D1
100
AcDbDictionary
280
     1
281
     1
  3
ACAD_XREC_ROUNDTRIP
360
184C
  0
DICTIONARY
  5
184D
330
13D2
100
AcDbDictionary
280
     1
281
     1
  3
ACAD_XREC_ROUNDTRIP
360
184E
  0
DICTIONARY
  5
184F
330
13D3
100
AcDbDictionary
280
     1
281
     1
  3
ACAD_XREC_ROUNDTRIP
360
1850
  0
DICTIONARY
  5
1851
330
13D4
100
AcDbDictionary
280
     1
281
     1
  3
ACAD_XREC_ROUNDTRIP
360
1852
  0
DICTIONARY
  5
1859
330
13D8
100
AcDbDictionary
280
     1
281
     1
  3
ACAD_XREC_ROUNDTRIP
360
185A
  0
DICTIONARY
  5
1875
330
13E6
100
AcDbDictionary
280
     1
281
     1
  3
ACAD_XREC_ROUNDTRIP
360
1876
  0
DICTIONARY
  5
1865
330
13DE
100
AcDbDictionary
280
     1
281
     1
  3
ACAD_XREC_ROUNDTRIP
360
1866
  0
DICTIONARY
  5
1877
330
13E7
100
AcDbDictionary
280
     1
281
     1
  3
ACAD_XREC_ROUNDTRIP
360
1878
  0
DICTIONARY
  5
185D
330
13DA
100
AcDbDictionary
280
     1
281
     1
  3
ACAD_XREC_ROUNDTRIP
360
185E
  0
DICTIONARY
  5
1873
330
13E5
100
AcDbDictionary
280
     1
281
     1
  3
ACAD_XREC_ROUNDTRIP
360
1874
  0
DICTIONARY
  5
1871
330
13E4
100
AcDbDictionary
280
     1
281
     1
  3
ACAD_XREC_ROUNDTRIP
360
1872
  0
DICTIONARY
  5
186B
330
13E1
100
AcDbDictionary
280
     1
281
     1
  3
ACAD_XREC_ROUNDTRIP
360
186C
  0
DICTIONARY
  5
186D
330
13E2
100
AcDbDictionary
280
     1
281
     1
  3
ACAD_XREC_ROUNDTRIP
360
186E
  0
DICTIONARY
  5
1863
330
13DD
100
AcDbDictionary
280
     1
281
     1
  3
ACAD_XREC_ROUNDTRIP
360
1864
  0
DICTIONARY
  5
1857
330
13D7
100
AcDbDictionary
280
     1
281
     1
  3
ACAD_XREC_ROUNDTRIP
360
1858
  0
DICTIONARY
  5
186F
330
13E3
100
AcDbDictionary
280
     1
281
     1
  3
ACAD_XREC_ROUNDTRIP
360
1870
  0
DICTIONARY
  5
170B
330
170A
100
AcDbDictionary
280
     1
281
     1
  3
AcadLayerStateAnnoScale
360
170C
  0
ACDBASSOCACTION
  5
1755
330
1752
100
AcDbAssocAction
 90
        1
 90
        1
330
1752
360
1756
 90
        1
 90
        3
 90
        3
360
1759
360
175A
360
175B
  0
ACDBASSOCACTION
  5
17D6
330
1752
100
AcDbAssocAction
 90
        1
 90
        1
330
1752
360
17D7
 90
        2
 90
        3
 90
        3
360
17DA
360
17DB
360
17DC
  0
XRECORD
  5
1885
102
{ACAD_REACTORS
330
1884
102
}
330
1884
100
AcDbXrecord
280
     1
102
DISPLAYNAME
  1
Imperial24
102
FLAGS
 90
        0
  0
XRECORD
  5
1881
102
{ACAD_REACTORS
330
1880
102
}
330
1880
100
AcDbXrecord
280
     1
102
DISPLAYNAME
  1
Metric50
102
FLAGS
 90
        0
  0
XRECORD
  5
1845
102
{ACAD_REACTORS
330
1844
102
}
330
1844
100
AcDbXrecord
280
     1
102
SHADEPLOT
 70
     0
102
SHADEPLOTRESLEVEL
 70
     2
102
SHADEPLOTCUSTOMDPI
 70
   300
  0
XRECORD
  5
1847
102
{ACAD_REACTORS
330
1846
102
}
330
1846
100
AcDbXrecord
280
     1
102
SHADEPLOT
 70
     0
102
SHADEPLOTRESLEVEL
 70
     2
102
SHADEPLOTCUSTOMDPI
 70
   300
  0
XRECORD
  5
1843
102
{ACAD_REACTORS
330
1842
102
}
330
1842
100
AcDbXrecord
280
     1
102
SHADEPLOT
 70
     0
102
SHADEPLOTRESLEVEL
 70
     2
102
SHADEPLOTCUSTOMDPI
 70
   300
  0
XRECORD
  5
1849
102
{ACAD_REACTORS
330
13C1
102
}
330
13C1
100
AcDbXrecord
280
     1
102
MATERIAL
148
0.0
149
0.0
149
0.0
 93
        0
 94
      127
282
     0
 72
     0
 77
     0
171
     0
175
     0
179
     0
273
     0
  0
XRECORD
  5
13C3
102
{ACAD_REACTORS
330
13C1
102
}
330
13C1
100
AcDbXrecord
280
     1
270
     1
271
     1
  0
XRECORD
  5
13C2
102
{ACAD_REACTORS
330
13C1
102
}
330
13C1
100
AcDbXrecord
280
     1
270
     1
271
     1
  0
XRECORD
  5
13C6
102
{ACAD_REACTORS
330
13C1
102
}
330
13C1
100
AcDbXrecord
280
     1
270
     1
271
     1
  0
XRECORD
  5
13C5
102
{ACAD_REACTORS
330
13C1
102
}
330
13C1
100
AcDbXrecord
280
     1
270
     1
271
     1
  0
XRECORD
  5
13C7
102
{ACAD_REACTORS
330
13C1
102
}
330
13C1
100
AcDbXrecord
280
     1
270
     1
271
     1
  0
XRECORD
  5
13C4
102
{ACAD_REACTORS
330
13C1
102
}
330
13C1
100
AcDbXrecord
280
     1
270
     1
271
     1
  0
XRECORD
  5
1848
102
{ACAD_REACTORS
330
13B9
102
}
330
13B9
100
AcDbXrecord
280
     1
102
MATERIAL
148
0.0
149
0.0
149
0.0
 93
        0
 94
      127
282
     0
 72
     0
 77
     0
171
     0
175
     0
179
     0
273
     0
  0
XRECORD
  5
13BB
102
{ACAD_REACTORS
330
13B9
102
}
330
13B9
100
AcDbXrecord
280
     1
270
     1
271
     1
  0
XRECORD
  5
13BA
102
{ACAD_REACTORS
330
13B9
102
}
330
13B9
100
AcDbXrecord
280
     1
270
     1
271
     1
  0
XRECORD
  5
13BE
102
{ACAD_REACTORS
330
13B9
102
}
330
13B9
100
AcDbXrecord
280
     1
270
     1
271
     1
  0
XRECORD
  5
13BD
102
{ACAD_REACTORS
330
13B9
102
}
330
13B9
100
AcDbXrecord
280
     1
270
     1
271
     1
  0
XRECORD
  5
13BF
102
{ACAD_REACTORS
330
13B9
102
}
330
13B9
100
AcDbXrecord
280
     1
270
     1
271
     1
  0
XRECORD
  5
13BC
102
{ACAD_REACTORS
330
13B9
102
}
330
13B9
100
AcDbXrecord
280
     1
270
     1
271
     1
  0
XRECORD
  5
184A
102
{ACAD_REACTORS
330
13C9
102
}
330
13C9
100
AcDbXrecord
280
     1
102
MATERIAL
148
0.0
149
0.0
149
0.0
 93
        0
 94
      127
282
     0
 72
     0
 77
     0
171
     0
175
     0
179
     0
273
     0
  0
XRECORD
  5
13CB
102
{ACAD_REACTORS
330
13C9
102
}
330
13C9
100
AcDbXrecord
280
     1
270
     1
271
     1
  0
XRECORD
  5
13CA
102
{ACAD_REACTORS
330
13C9
102
}
330
13C9
100
AcDbXrecord
280
     1
270
     1
271
     1
  0
XRECORD
  5
13CE
102
{ACAD_REACTORS
330
13C9
102
}
330
13C9
100
AcDbXrecord
280
     1
270
     1
271
     1
  0
XRECORD
  5
13CD
102
{ACAD_REACTORS
330
13C9
102
}
330
13C9
100
AcDbXrecord
280
     1
270
     1
271
     1
  0
XRECORD
  5
13CF
102
{ACAD_REACTORS
330
13C9
102
}
330
13C9
100
AcDbXrecord
280
     1
270
     1
271
     1
  0
XRECORD
  5
13CC
102
{ACAD_REACTORS
330
13C9
102
}
330
13C9
100
AcDbXrecord
280
     1
270
     1
271
     1
  0
XRECORD
  5
187D
102
{ACAD_REACTORS
330
187C
102
}
330
187C
100
AcDbXrecord
280
     1
102
ACAD_ROUNDTRIP_2012_MLEADER_STYLE
298
     1
  0
XRECORD
  5
1883
102
{ACAD_REACTORS
330
1882
102
}
330
1882
100
AcDbXrecord
280
     1
102
DISPLAYNAME
  1
Imperial24
102
FLAGS
 90
        0
  0
XRECORD
  5
187F
102
{ACAD_REACTORS
330
187E
102
}
330
187E
100
AcDbXrecord
280
     1
102
DISPLAYNAME
  1
Metric50
102
FLAGS
 90
        0
  0
CELLSTYLEMAP
  5
183F
102
{ACAD_REACTORS
330
141D
102
}
330
141D
100
AcDbCellStyleMap
 90
        3
300
CELLSTYLE
  1
TABLEFORMAT_BEGIN
 90
        5
170
     1
 91
        0
 92
    32768
 62
   257
 93
        1
300
CONTENTFORMAT
  1
CONTENTFORMAT_BEGIN
 90
        0
 91
        0
 92
      512
 93
        0
300

 40
0.0
140
1.0
 94
        5
 62
     0
340
9
144
6.0
309
CONTENTFORMAT_END
171
     1
301
MARGIN
  1
CELLMARGIN_BEGIN
 40
1.5
 40
1.5
 40
1.5
 40
1.5
 40
4.5
 40
4.5
309
CELLMARGIN_END
 94
        6
 95
        1
302
GRIDFORMAT
  1
GRIDFORMAT_BEGIN
 90
        0
 91
        1
 62
     0
 92
       -2
340
0
 93
        0
 40
1.125
309
GRIDFORMAT_END
 95
        2
302
GRIDFORMAT
  1
GRIDFORMAT_BEGIN
 90
        0
 91
        1
 62
     0
 92
       -2
340
0
 93
        0
 40
1.125
309
GRIDFORMAT_END
 95
        4
302
GRIDFORMAT
  1
GRIDFORMAT_BEGIN
 90
        0
 91
        1
 62
     0
 92
       -2
340
0
 93
        0
 40
1.125
309
GRIDFORMAT_END
 95
        8
302
GRIDFORMAT
  1
GRIDFORMAT_BEGIN
 90
        0
 91
        1
 62
     0
 92
       -2
340
0
 93
        0
 40
1.125
309
GRIDFORMAT_END
 95
       16
302
GRIDFORMAT
  1
GRIDFORMAT_BEGIN
 90
        0
 91
        1
 62
     0
 92
       -2
340
0
 93
        0
 40
1.125
309
GRIDFORMAT_END
 95
       32
302
GRIDFORMAT
  1
GRIDFORMAT_BEGIN
 90
        0
 91
        1
 62
     0
 92
       -2
340
0
 93
        0
 40
1.125
309
GRIDFORMAT_END
309
TABLEFORMAT_END
  1
CELLSTYLE_BEGIN
 90
        1
 91
        1
300
_TITLE
309
CELLSTYLE_END
300
CELLSTYLE
  1
TABLEFORMAT_BEGIN
 90
        5
170
     1
 91
        0
 92
        0
 62
   257
 93
        1
300
CONTENTFORMAT
  1
CONTENTFORMAT_BEGIN
 90
        0
 91
        0
 92
      512
 93
        0
300

 40
0.0
140
1.0
 94
        5
 62
     0
340
9
144
4.5
309
CONTENTFORMAT_END
171
     1
301
MARGIN
  1
CELLMARGIN_BEGIN
 40
1.5
 40
1.5
 40
1.5
 40
1.5
 40
4.5
 40
4.5
309
CELLMARGIN_END
 94
        6
 95
        1
302
GRIDFORMAT
  1
GRIDFORMAT_BEGIN
 90
        0
 91
        1
 62
     0
 92
       -2
340
0
 93
        0
 40
1.125
309
GRIDFORMAT_END
 95
        2
302
GRIDFORMAT
  1
GRIDFORMAT_BEGIN
 90
        0
 91
        1
 62
     0
 92
       -2
340
0
 93
        0
 40
1.125
309
GRIDFORMAT_END
 95
        4
302
GRIDFORMAT
  1
GRIDFORMAT_BEGIN
 90
        0
 91
        1
 62
     0
 92
       -2
340
0
 93
        0
 40
1.125
309
GRIDFORMAT_END
 95
        8
302
GRIDFORMAT
  1
GRIDFORMAT_BEGIN
 90
        0
 91
        1
 62
     0
 92
       -2
340
0
 93
        0
 40
1.125
309
GRIDFORMAT_END
 95
       16
302
GRIDFORMAT
  1
GRIDFORMAT_BEGIN
 90
        0
 91
        1
 62
     0
 92
       -2
340
0
 93
        0
 40
1.125
309
GRIDFORMAT_END
 95
       32
302
GRIDFORMAT
  1
GRIDFORMAT_BEGIN
 90
        0
 91
        1
 62
     0
 92
       -2
340
0
 93
        0
 40
1.125
309
GRIDFORMAT_END
309
TABLEFORMAT_END
  1
CELLSTYLE_BEGIN
 90
        2
 91
        1
300
_HEADER
309
CELLSTYLE_END
300
CELLSTYLE
  1
TABLEFORMAT_BEGIN
 90
        5
170
     1
 91
        0
 92
        0
 62
   257
 93
        1
300
CONTENTFORMAT
  1
CONTENTFORMAT_BEGIN
 90
        0
 91
        0
 92
      512
 93
        0
300

 40
0.0
140
1.0
 94
        2
 62
     0
340
9
144
4.5
309
CONTENTFORMAT_END
171
     1
301
MARGIN
  1
CELLMARGIN_BEGIN
 40
1.5
 40
1.5
 40
1.5
 40
1.5
 40
4.5
 40
4.5
309
CELLMARGIN_END
 94
        6
 95
        1
302
GRIDFORMAT
  1
GRIDFORMAT_BEGIN
 90
        0
 91
        1
 62
     0
 92
       -2
340
0
 93
        0
 40
1.125
309
GRIDFORMAT_END
 95
        2
302
GRIDFORMAT
  1
GRIDFORMAT_BEGIN
 90
        0
 91
        1
 62
     0
 92
       -2
340
0
 93
        0
 40
1.125
309
GRIDFORMAT_END
 95
        4
302
GRIDFORMAT
  1
GRIDFORMAT_BEGIN
 90
        0
 91
        1
 62
     0
 92
       -2
340
0
 93
        0
 40
1.125
309
GRIDFORMAT_END
 95
        8
302
GRIDFORMAT
  1
GRIDFORMAT_BEGIN
 90
        0
 91
        1
 62
     0
 92
       -2
340
0
 93
        0
 40
1.125
309
GRIDFORMAT_END
 95
       16
302
GRIDFORMAT
  1
GRIDFORMAT_BEGIN
 90
        0
 91
        1
 62
     0
 92
       -2
340
0
 93
        0
 40
1.125
309
GRIDFORMAT_END
 95
       32
302
GRIDFORMAT
  1
GRIDFORMAT_BEGIN
 90
        0
 91
        1
 62
     0
 92
       -2
340
0
 93
        0
 40
1.125
309
GRIDFORMAT_END
309
TABLEFORMAT_END
  1
CELLSTYLE_BEGIN
 90
        3
 91
        2
300
_DATA
309
CELLSTYLE_END
  0
XRECORD
  5
187B
102
{ACAD_REACTORS
330
141D
102
}
330
141D
100
AcDbXrecord
280
     1
102
ACAD_ROUNDTRIP_PRE2007_TABLESTYLE
 90
      512
 91
        0
  1

 92
      512
 93
        0
  2

 94
      512
 95
        0
  3

  0
XRECORD
  5
1856
102
{ACAD_REACTORS
330
1855
102
}
330
1855
100
AcDbXrecord
280
     1
102
RTVSPost2010Prop28
280
     1
102
RTVSPost2010PropOp28
 70
     1
102
RTVSPost2010Prop29
280
     1
102
RTVSPost2010PropOp29
 70
     1
102
RTVSPost2010Prop30
280
     0
102
RTVSPost2010PropOp30
 70
     1
102
RTVSPost2010Prop31
280
     0
102
RTVSPost2010PropOp31
 70
     1
102
RTVSPost2010Prop32
280
     0
102
RTVSPost2010PropOp32
 70
     1
102
RTVSPost2010Prop33
280
     0
102
RTVSPost2010PropOp33
 70
     1
102
RTVSPost2010Prop34
280
     0
102
RTVSPost2010PropOp34
 70
     1
102
RTVSPost2010Prop35
280
     0
102
RTVSPost2010PropOp35
 70
     1
102
RTVSPost2010Prop36
280
     0
102
RTVSPost2010PropOp36
 70
     1
102
RTVSPost2010Prop37
 90
       50
102
RTVSPost2010PropOp37
 70
     1
102
RTVSPost2010Prop38
140
0.0
102
RTVSPost2010PropOp38
 70
     1
102
RTVSPost2010Prop39
140
1.0
102
RTVSPost2010PropOp39
 70
     1
102
RTVSPost2010Prop40
 90
        0
102
RTVSPost2010PropOp40
 70
     1
102
RTVSPost2010Prop41ColorIndex
 90
       18
102
RTVSPost2010Prop41ColorRGB
 90
        0
102
RTVSPost2010PropOp41
 70
     1
102
RTVSPost2010Prop42
 90
       50
102
RTVSPost2010PropOp42
 70
     1
102
RTVSPost2010Prop43
 90
        3
102
RTVSPost2010PropOp43
 70
     1
102
RTVSPost2010Prop44ColorIndex
 90
        5
102
RTVSPost2010Prop44ColorRGB
 90
      255
102
RTVSPost2010PropOp44
 70
     1
102
RTVSPost2010Prop45
280
     0
102
RTVSPost2010PropOp45
 70
     1
102
RTVSPost2010Prop46
 90
       50
102
RTVSPost2010PropOp46
 70
     1
102
RTVSPost2010Prop47
 90
       50
102
RTVSPost2010PropOp47
 70
     1
102
RTVSPost2010Prop48
 90
       50
102
RTVSPost2010PropOp48
 70
     1
102
RTVSPost2010Prop49
280
     0
102
RTVSPost2010PropOp49
 70
     1
102
RTVSPost2010Prop50
 90
       50
102
RTVSPost2010PropOp50
 70
     1
102
RTVSPost2010Prop51ColorIndex
 90
      256
102
RTVSPost2010Prop51ColorRGB
 90
-16777216
102
RTVSPost2010PropOp51
 70
     0
102
RTVSPost2010Prop52
140
1.0
102
RTVSPost2010PropOp52
 70
     0
102
RTVSPost2010Prop53
 90
        2
102
RTVSPost2010PropOp53
 70
     1
102
RTVSPost2010Prop54
  1
strokes_ogs.tif
102
RTVSPost2010PropOp54
 70
     1
102
RTVSPost2010Prop55
280
     0
102
RTVSPost2010PropOp55
 70
     1
102
RTVSPost2010Prop56
140
1.0
102
RTVSPost2010PropOp56
 70
     1
102
RTVSPost2010Prop57
140
1.0
102
RTVSPost2010PropOp57
 70
     1
102
RTVSPropertyOp0
 70
     1
102
RTVSPropertyOp1
 70
     1
102
RTVSPropertyOp2
 70
     1
102
RTVSPropertyOp3
 70
     1
102
RTVSPropertyOp4
 70
     1
102
RTVSPropertyOp5
 70
     1
102
RTVSPropertyOp6
 70
     1
102
RTVSPropertyOp7
 70
     1
102
RTVSPropertyOp8
 70
     1
102
RTVSPropertyOp9
 70
     1
102
RTVSPropertyOp10
 70
     1
102
RTVSPropertyOp11
 70
     1
102
RTVSPropertyOp12
 70
     1
102
RTVSPropertyOp13
 70
     1
102
RTVSPropertyOp14
 70
     1
102
RTVSPropertyOp15
 70
     1
102
RTVSPropertyOp16
 70
     1
102
RTVSPropertyOp17
 70
     1
102
RTVSPropertyOp18
 70
     1
102
RTVSPropertyOp19
 70
     1
102
RTVSPropertyOp20
 70
     1
102
RTVSPropertyOp21
 70
     1
102
RTVSPropertyOp22
 70
     1
102
RTVSPropertyOp23
 70
     1
102
RTVSPropertyOp24
 70
     1
102
RTVSPropertyOp25
 70
     1
102
RTVSPropertyOp26
 70
     1
102
RTVSPropertyOp27
 70
     1
102
RTVSPropertyOp28
 70
     1
102
RTVSPropertyOp29
 70
     1
102
RTVSPropertyOp30
 70
     1
102
RTVSPropertyOp31
 70
     1
102
RTVSPropertyOp32
 70
     1
102
RTVSPropertyOp33
 70
     1
102
RTVSPropertyOp34
 70
     1
102
RTVSPropertyOp35
 70
     1
102
RTVSPropertyOp36
 70
     1
102
RTVSPropertyOp37
 70
     1
102
RTVSPropertyOp38
 70
     1
102
RTVSPropertyOp39
 70
     1
102
RTVSPropertyOp40
 70
     1
102
RTVSPropertyOp41
 70
     1
102
RTVSPropertyOp42
 70
     1
102
RTVSPropertyOp43
 70
     1
102
RTVSPropertyOp44
 70
     1
102
RTVSPropertyOp45
 70
     1
102
RTVSPropertyOp46
 70
     1
102
RTVSPropertyOp47
 70
     1
102
RTVSPropertyOp48
 70
     1
102
RTVSPropertyOp49
 70
     1
102
RTVSPropertyOp50
 70
     1
102
RTVSPropertyOp51
 70
     0
102
RTVSPropertyOp52
 70
     0
102
RTVSPropertyOp53
 70
     1
102
RTVSPropertyOp54
 70
     1
102
RTVSPropertyOp55
 70
     1
102
RTVSPropertyOp56
 70
     1
102
RTVSPropertyOp57
 70
     1
102
RTVSPropertyOp58
 70
     1
102
RTVSPropertyOp59
 70
     1
102
RTVSPropertyOp60
 70
     1
102
RTVSPropertyOp61
 70
     1
102
RTVSPropertyOp62
 70
     1
  0
XRECORD
  5
1854
102
{ACAD_REACTORS
330
1853
102
}
330
1853
100
AcDbXrecord
280
     1
102
RTVSPost2010Prop28
280
     0
102
RTVSPost2010PropOp28
 70
     1
102
RTVSPost2010Prop29
280
     1
102
RTVSPost2010PropOp29
 70
     1
102
RTVSPost2010Prop30
280
     1
102
RTVSPost2010PropOp30
 70
     1
102
RTVSPost2010Prop31
280
     0
102
RTVSPost2010PropOp31
 70
     1
102
RTVSPost2010Prop32
280
     0
102
RTVSPost2010PropOp32
 70
     1
102
RTVSPost2010Prop33
280
     0
102
RTVSPost2010PropOp33
 70
     1
102
RTVSPost2010Prop34
280
     0
102
RTVSPost2010PropOp34
 70
     1
102
RTVSPost2010Prop35
280
     0
102
RTVSPost2010PropOp35
 70
     1
102
RTVSPost2010Prop36
280
     0
102
RTVSPost2010PropOp36
 70
     1
102
RTVSPost2010Prop37
 90
       50
102
RTVSPost2010PropOp37
 70
     1
102
RTVSPost2010Prop38
140
0.0
102
RTVSPost2010PropOp38
 70
     1
102
RTVSPost2010Prop39
140
1.0
102
RTVSPost2010PropOp39
 70
     1
102
RTVSPost2010Prop40
 90
        0
102
RTVSPost2010PropOp40
 70
     1
102
RTVSPost2010Prop41ColorIndex
 90
       18
102
RTVSPost2010Prop41ColorRGB
 90
        0
102
RTVSPost2010PropOp41
 70
     1
102
RTVSPost2010Prop42
 90
       50
102
RTVSPost2010PropOp42
 70
     1
102
RTVSPost2010Prop43
 90
        3
102
RTVSPost2010PropOp43
 70
     1
102
RTVSPost2010Prop44ColorIndex
 90
        5
102
RTVSPost2010Prop44ColorRGB
 90
      255
102
RTVSPost2010PropOp44
 70
     1
102
RTVSPost2010Prop45
280
     0
102
RTVSPost2010PropOp45
 70
     1
102
RTVSPost2010Prop46
 90
       50
102
RTVSPost2010PropOp46
 70
     1
102
RTVSPost2010Prop47
 90
       50
102
RTVSPost2010PropOp47
 70
     1
102
RTVSPost2010Prop48
 90
       50
102
RTVSPost2010PropOp48
 70
     1
102
RTVSPost2010Prop49
280
     0
102
RTVSPost2010PropOp49
 70
     1
102
RTVSPost2010Prop50
 90
       50
102
RTVSPost2010PropOp50
 70
     1
102
RTVSPost2010Prop51ColorIndex
 90
      256
102
RTVSPost2010Prop51ColorRGB
 90
-16777216
102
RTVSPost2010PropOp51
 70
     0
102
RTVSPost2010Prop52
140
1.0
102
RTVSPost2010PropOp52
 70
     0
102
RTVSPost2010Prop53
 90
        2
102
RTVSPost2010PropOp53
 70
     1
102
RTVSPost2010Prop54
  1
strokes_ogs.tif
102
RTVSPost2010PropOp54
 70
     1
102
RTVSPost2010Prop55
280
     0
102
RTVSPost2010PropOp55
 70
     1
102
RTVSPost2010Prop56
140
1.0
102
RTVSPost2010PropOp56
 70
     1
102
RTVSPost2010Prop57
140
1.0
102
RTVSPost2010PropOp57
 70
     1
102
RTVSPropertyOp0
 70
     1
102
RTVSPropertyOp1
 70
     1
102
RTVSPropertyOp2
 70
     1
102
RTVSPropertyOp3
 70
     1
102
RTVSPropertyOp4
 70
     1
102
RTVSPropertyOp5
 70
     1
102
RTVSPropertyOp6
 70
     1
102
RTVSPropertyOp7
 70
     1
102
RTVSPropertyOp8
 70
     1
102
RTVSPropertyOp9
 70
     1
102
RTVSPropertyOp10
 70
     1
102
RTVSPropertyOp11
 70
     1
102
RTVSPropertyOp12
 70
     1
102
RTVSPropertyOp13
 70
     1
102
RTVSPropertyOp14
 70
     1
102
RTVSPropertyOp15
 70
     1
102
RTVSPropertyOp16
 70
     1
102
RTVSPropertyOp17
 70
     1
102
RTVSPropertyOp18
 70
     1
102
RTVSPropertyOp19
 70
     1
102
RTVSPropertyOp20
 70
     1
102
RTVSPropertyOp21
 70
     1
102
RTVSPropertyOp22
 70
     1
102
RTVSPropertyOp23
 70
     1
102
RTVSPropertyOp24
 70
     1
102
RTVSPropertyOp25
 70
     1
102
RTVSPropertyOp26
 70
     1
102
RTVSPropertyOp27
 70
     1
102
RTVSPropertyOp28
 70
     1
102
RTVSPropertyOp29
 70
     1
102
RTVSPropertyOp30
 70
     1
102
RTVSPropertyOp31
 70
     1
102
RTVSPropertyOp32
 70
     1
102
RTVSPropertyOp33
 70
     1
102
RTVSPropertyOp34
 70
     1
102
RTVSPropertyOp35
 70
     1
102
RTVSPropertyOp36
 70
     1
102
RTVSPropertyOp37
 70
     1
102
RTVSPropertyOp38
 70
     1
102
RTVSPropertyOp39
 70
     1
102
RTVSPropertyOp40
 70
     1
102
RTVSPropertyOp41
 70
     1
102
RTVSPropertyOp42
 70
     1
102
RTVSPropertyOp43
 70
     1
102
RTVSPropertyOp44
 70
     1
102
RTVSPropertyOp45
 70
     1
102
RTVSPropertyOp46
 70
     1
102
RTVSPropertyOp47
 70
     1
102
RTVSPropertyOp48
 70
     1
102
RTVSPropertyOp49
 70
     1
102
RTVSPropertyOp50
 70
     1
102
RTVSPropertyOp51
 70
     0
102
RTVSPropertyOp52
 70
     0
102
RTVSPropertyOp53
 70
     1
102
RTVSPropertyOp54
 70
     1
102
RTVSPropertyOp55
 70
     1
102
RTVSPropertyOp56
 70
     1
102
RTVSPropertyOp57
 70
     1
102
RTVSPropertyOp58
 70
     1
102
RTVSPropertyOp59
 70
     1
102
RTVSPropertyOp60
 70
     1
102
RTVSPropertyOp61
 70
     1
102
RTVSPropertyOp62
 70
     1
  0
XRECORD
  5
1862
102
{ACAD_REACTORS
330
1861
102
}
330
1861
100
AcDbXrecord
280
     1
102
RTVSPost2010Prop28
280
     0
102
RTVSPost2010PropOp28
 70
     1
102
RTVSPost2010Prop29
280
     1
102
RTVSPost2010PropOp29
 70
     1
102
RTVSPost2010Prop30
280
     1
102
RTVSPost2010PropOp30
 70
     1
102
RTVSPost2010Prop31
280
     0
102
RTVSPost2010PropOp31
 70
     1
102
RTVSPost2010Prop32
280
     0
102
RTVSPost2010PropOp32
 70
     1
102
RTVSPost2010Prop33
280
     0
102
RTVSPost2010PropOp33
 70
     1
102
RTVSPost2010Prop34
280
     0
102
RTVSPost2010PropOp34
 70
     1
102
RTVSPost2010Prop35
280
     0
102
RTVSPost2010PropOp35
 70
     1
102
RTVSPost2010Prop36
280
     0
102
RTVSPost2010PropOp36
 70
     1
102
RTVSPost2010Prop37
 90
       50
102
RTVSPost2010PropOp37
 70
     1
102
RTVSPost2010Prop38
140
0.0
102
RTVSPost2010PropOp38
 70
     1
102
RTVSPost2010Prop39
140
1.0
102
RTVSPost2010PropOp39
 70
     1
102
RTVSPost2010Prop40
 90
        0
102
RTVSPost2010PropOp40
 70
     1
102
RTVSPost2010Prop41ColorIndex
 90
       18
102
RTVSPost2010Prop41ColorRGB
 90
        0
102
RTVSPost2010PropOp41
 70
     1
102
RTVSPost2010Prop42
 90
       50
102
RTVSPost2010PropOp42
 70
     1
102
RTVSPost2010Prop43
 90
        3
102
RTVSPost2010PropOp43
 70
     1
102
RTVSPost2010Prop44ColorIndex
 90
        5
102
RTVSPost2010Prop44ColorRGB
 90
      255
102
RTVSPost2010PropOp44
 70
     1
102
RTVSPost2010Prop45
280
     0
102
RTVSPost2010PropOp45
 70
     1
102
RTVSPost2010Prop46
 90
       50
102
RTVSPost2010PropOp46
 70
     1
102
RTVSPost2010Prop47
 90
       50
102
RTVSPost2010PropOp47
 70
     1
102
RTVSPost2010Prop48
 90
       50
102
RTVSPost2010PropOp48
 70
     1
102
RTVSPost2010Prop49
280
     0
102
RTVSPost2010PropOp49
 70
     1
102
RTVSPost2010Prop50
 90
       50
102
RTVSPost2010PropOp50
 70
     1
102
RTVSPost2010Prop51ColorIndex
 90
      256
102
RTVSPost2010Prop51ColorRGB
 90
-16777216
102
RTVSPost2010PropOp51
 70
     0
102
RTVSPost2010Prop52
140
1.0
102
RTVSPost2010PropOp52
 70
     0
102
RTVSPost2010Prop53
 90
        2
102
RTVSPost2010PropOp53
 70
     1
102
RTVSPost2010Prop54
  1
strokes_ogs.tif
102
RTVSPost2010PropOp54
 70
     1
102
RTVSPost2010Prop55
280
     0
102
RTVSPost2010PropOp55
 70
     1
102
RTVSPost2010Prop56
140
1.0
102
RTVSPost2010PropOp56
 70
     1
102
RTVSPost2010Prop57
140
1.0
102
RTVSPost2010PropOp57
 70
     1
102
RTVSPropertyOp0
 70
     1
102
RTVSPropertyOp1
 70
     1
102
RTVSPropertyOp2
 70
     1
102
RTVSPropertyOp3
 70
     1
102
RTVSPropertyOp4
 70
     1
102
RTVSPropertyOp5
 70
     1
102
RTVSPropertyOp6
 70
     1
102
RTVSPropertyOp7
 70
     1
102
RTVSPropertyOp8
 70
     1
102
RTVSPropertyOp9
 70
     1
102
RTVSPropertyOp10
 70
     1
102
RTVSPropertyOp11
 70
     1
102
RTVSPropertyOp12
 70
     1
102
RTVSPropertyOp13
 70
     1
102
RTVSPropertyOp14
 70
     1
102
RTVSPropertyOp15
 70
     1
102
RTVSPropertyOp16
 70
     1
102
RTVSPropertyOp17
 70
     1
102
RTVSPropertyOp18
 70
     1
102
RTVSPropertyOp19
 70
     1
102
RTVSPropertyOp20
 70
     1
102
RTVSPropertyOp21
 70
     1
102
RTVSPropertyOp22
 70
     1
102
RTVSPropertyOp23
 70
     1
102
RTVSPropertyOp24
 70
     1
102
RTVSPropertyOp25
 70
     1
102
RTVSPropertyOp26
 70
     1
102
RTVSPropertyOp27
 70
     1
102
RTVSPropertyOp28
 70
     1
102
RTVSPropertyOp29
 70
     1
102
RTVSPropertyOp30
 70
     1
102
RTVSPropertyOp31
 70
     1
102
RTVSPropertyOp32
 70
     1
102
RTVSPropertyOp33
 70
     1
102
RTVSPropertyOp34
 70
     1
102
RTVSPropertyOp35
 70
     1
102
RTVSPropertyOp36
 70
     1
102
RTVSPropertyOp37
 70
     1
102
RTVSPropertyOp38
 70
     1
102
RTVSPropertyOp39
 70
     1
102
RTVSPropertyOp40
 70
     1
102
RTVSPropertyOp41
 70
     1
102
RTVSPropertyOp42
 70
     1
102
RTVSPropertyOp43
 70
     1
102
RTVSPropertyOp44
 70
     1
102
RTVSPropertyOp45
 70
     1
102
RTVSPropertyOp46
 70
     1
102
RTVSPropertyOp47
 70
     1
102
RTVSPropertyOp48
 70
     1
102
RTVSPropertyOp49
 70
     1
102
RTVSPropertyOp50
 70
     1
102
RTVSPropertyOp51
 70
     0
102
RTVSPropertyOp52
 70
     0
102
RTVSPropertyOp53
 70
     1
102
RTVSPropertyOp54
 70
     1
102
RTVSPropertyOp55
 70
     1
102
RTVSPropertyOp56
 70
     1
102
RTVSPropertyOp57
 70
     1
102
RTVSPropertyOp58
 70
     1
102
RTVSPropertyOp59
 70
     1
102
RTVSPropertyOp60
 70
     1
102
RTVSPropertyOp61
 70
     1
102
RTVSPropertyOp62
 70
     1
  0
XRECORD
  5
186A
102
{ACAD_REACTORS
330
1869
102
}
330
1869
100
AcDbXrecord
280
     1
102
RTVSPost2010Prop28
280
     0
102
RTVSPost2010PropOp28
 70
     1
102
RTVSPost2010Prop29
280
     1
102
RTVSPost2010PropOp29
 70
     1
102
RTVSPost2010Prop30
280
     1
102
RTVSPost2010PropOp30
 70
     1
102
RTVSPost2010Prop31
280
     0
102
RTVSPost2010PropOp31
 70
     1
102
RTVSPost2010Prop32
280
     0
102
RTVSPost2010PropOp32
 70
     1
102
RTVSPost2010Prop33
280
     0
102
RTVSPost2010PropOp33
 70
     1
102
RTVSPost2010Prop34
280
     0
102
RTVSPost2010PropOp34
 70
     1
102
RTVSPost2010Prop35
280
     0
102
RTVSPost2010PropOp35
 70
     1
102
RTVSPost2010Prop36
280
     0
102
RTVSPost2010PropOp36
 70
     1
102
RTVSPost2010Prop37
 90
       50
102
RTVSPost2010PropOp37
 70
     1
102
RTVSPost2010Prop38
140
0.0
102
RTVSPost2010PropOp38
 70
     1
102
RTVSPost2010Prop39
140
1.0
102
RTVSPost2010PropOp39
 70
     1
102
RTVSPost2010Prop40
 90
        0
102
RTVSPost2010PropOp40
 70
     1
102
RTVSPost2010Prop41ColorIndex
 90
       18
102
RTVSPost2010Prop41ColorRGB
 90
        0
102
RTVSPost2010PropOp41
 70
     1
102
RTVSPost2010Prop42
 90
       50
102
RTVSPost2010PropOp42
 70
     1
102
RTVSPost2010Prop43
 90
        3
102
RTVSPost2010PropOp43
 70
     1
102
RTVSPost2010Prop44ColorIndex
 90
        5
102
RTVSPost2010Prop44ColorRGB
 90
      255
102
RTVSPost2010PropOp44
 70
     1
102
RTVSPost2010Prop45
280
     0
102
RTVSPost2010PropOp45
 70
     1
102
RTVSPost2010Prop46
 90
       50
102
RTVSPost2010PropOp46
 70
     1
102
RTVSPost2010Prop47
 90
       50
102
RTVSPost2010PropOp47
 70
     1
102
RTVSPost2010Prop48
 90
       50
102
RTVSPost2010PropOp48
 70
     1
102
RTVSPost2010Prop49
280
     0
102
RTVSPost2010PropOp49
 70
     1
102
RTVSPost2010Prop50
 90
       50
102
RTVSPost2010PropOp50
 70
     1
102
RTVSPost2010Prop51ColorIndex
 90
      256
102
RTVSPost2010Prop51ColorRGB
 90
-16777216
102
RTVSPost2010PropOp51
 70
     0
102
RTVSPost2010Prop52
140
1.0
102
RTVSPost2010PropOp52
 70
     0
102
RTVSPost2010Prop53
 90
        2
102
RTVSPost2010PropOp53
 70
     1
102
RTVSPost2010Prop54
  1
strokes_ogs.tif
102
RTVSPost2010PropOp54
 70
     1
102
RTVSPost2010Prop55
280
     0
102
RTVSPost2010PropOp55
 70
     1
102
RTVSPost2010Prop56
140
1.0
102
RTVSPost2010PropOp56
 70
     1
102
RTVSPost2010Prop57
140
1.0
102
RTVSPost2010PropOp57
 70
     1
102
RTVSPropertyOp0
 70
     1
102
RTVSPropertyOp1
 70
     1
102
RTVSPropertyOp2
 70
     1
102
RTVSPropertyOp3
 70
     1
102
RTVSPropertyOp4
 70
     1
102
RTVSPropertyOp5
 70
     1
102
RTVSPropertyOp6
 70
     1
102
RTVSPropertyOp7
 70
     1
102
RTVSPropertyOp8
 70
     1
102
RTVSPropertyOp9
 70
     1
102
RTVSPropertyOp10
 70
     1
102
RTVSPropertyOp11
 70
     1
102
RTVSPropertyOp12
 70
     1
102
RTVSPropertyOp13
 70
     1
102
RTVSPropertyOp14
 70
     1
102
RTVSPropertyOp15
 70
     1
102
RTVSPropertyOp16
 70
     1
102
RTVSPropertyOp17
 70
     1
102
RTVSPropertyOp18
 70
     1
102
RTVSPropertyOp19
 70
     1
102
RTVSPropertyOp20
 70
     1
102
RTVSPropertyOp21
 70
     1
102
RTVSPropertyOp22
 70
     1
102
RTVSPropertyOp23
 70
     1
102
RTVSPropertyOp24
 70
     1
102
RTVSPropertyOp25
 70
     1
102
RTVSPropertyOp26
 70
     1
102
RTVSPropertyOp27
 70
     1
102
RTVSPropertyOp28
 70
     1
102
RTVSPropertyOp29
 70
     1
102
RTVSPropertyOp30
 70
     1
102
RTVSPropertyOp31
 70
     1
102
RTVSPropertyOp32
 70
     1
102
RTVSPropertyOp33
 70
     1
102
RTVSPropertyOp34
 70
     1
102
RTVSPropertyOp35
 70
     1
102
RTVSPropertyOp36
 70
     1
102
RTVSPropertyOp37
 70
     1
102
RTVSPropertyOp38
 70
     1
102
RTVSPropertyOp39
 70
     1
102
RTVSPropertyOp40
 70
     1
102
RTVSPropertyOp41
 70
     1
102
RTVSPropertyOp42
 70
     1
102
RTVSPropertyOp43
 70
     1
102
RTVSPropertyOp44
 70
     1
102
RTVSPropertyOp45
 70
     1
102
RTVSPropertyOp46
 70
     1
102
RTVSPropertyOp47
 70
     1
102
RTVSPropertyOp48
 70
     1
102
RTVSPropertyOp49
 70
     1
102
RTVSPropertyOp50
 70
     1
102
RTVSPropertyOp51
 70
     0
102
RTVSPropertyOp52
 70
     0
102
RTVSPropertyOp53
 70
     1
102
RTVSPropertyOp54
 70
     1
102
RTVSPropertyOp55
 70
     1
102
RTVSPropertyOp56
 70
     1
102
RTVSPropertyOp57
 70
     1
102
RTVSPropertyOp58
 70
     1
102
RTVSPropertyOp59
 70
     1
102
RTVSPropertyOp60
 70
     1
102
RTVSPropertyOp61
 70
     1
102
RTVSPropertyOp62
 70
     1
  0
XRECORD
  5
185C
102
{ACAD_REACTORS
330
185B
102
}
330
185B
100
AcDbXrecord
280
     1
102
RTVSPost2010Prop28
280
     0
102
RTVSPost2010PropOp28
 70
     1
102
RTVSPost2010Prop29
280
     1
102
RTVSPost2010PropOp29
 70
     1
102
RTVSPost2010Prop30
280
     1
102
RTVSPost2010PropOp30
 70
     1
102
RTVSPost2010Prop31
280
     0
102
RTVSPost2010PropOp31
 70
     1
102
RTVSPost2010Prop32
280
     0
102
RTVSPost2010PropOp32
 70
     1
102
RTVSPost2010Prop33
280
     0
102
RTVSPost2010PropOp33
 70
     1
102
RTVSPost2010Prop34
280
     0
102
RTVSPost2010PropOp34
 70
     1
102
RTVSPost2010Prop35
280
     0
102
RTVSPost2010PropOp35
 70
     1
102
RTVSPost2010Prop36
280
     0
102
RTVSPost2010PropOp36
 70
     1
102
RTVSPost2010Prop37
 90
       50
102
RTVSPost2010PropOp37
 70
     1
102
RTVSPost2010Prop38
140
0.0
102
RTVSPost2010PropOp38
 70
     1
102
RTVSPost2010Prop39
140
1.0
102
RTVSPost2010PropOp39
 70
     1
102
RTVSPost2010Prop40
 90
        0
102
RTVSPost2010PropOp40
 70
     1
102
RTVSPost2010Prop41ColorIndex
 90
       18
102
RTVSPost2010Prop41ColorRGB
 90
        0
102
RTVSPost2010PropOp41
 70
     1
102
RTVSPost2010Prop42
 90
       50
102
RTVSPost2010PropOp42
 70
     1
102
RTVSPost2010Prop43
 90
        3
102
RTVSPost2010PropOp43
 70
     1
102
RTVSPost2010Prop44ColorIndex
 90
        5
102
RTVSPost2010Prop44ColorRGB
 90
      255
102
RTVSPost2010PropOp44
 70
     1
102
RTVSPost2010Prop45
280
     0
102
RTVSPost2010PropOp45
 70
     1
102
RTVSPost2010Prop46
 90
       50
102
RTVSPost2010PropOp46
 70
     1
102
RTVSPost2010Prop47
 90
       50
102
RTVSPost2010PropOp47
 70
     1
102
RTVSPost2010Prop48
 90
       50
102
RTVSPost2010PropOp48
 70
     1
102
RTVSPost2010Prop49
280
     0
102
RTVSPost2010PropOp49
 70
     1
102
RTVSPost2010Prop50
 90
       50
102
RTVSPost2010PropOp50
 70
     1
102
RTVSPost2010Prop51ColorIndex
 90
      256
102
RTVSPost2010Prop51ColorRGB
 90
-16777216
102
RTVSPost2010PropOp51
 70
     0
102
RTVSPost2010Prop52
140
1.0
102
RTVSPost2010PropOp52
 70
     0
102
RTVSPost2010Prop53
 90
        2
102
RTVSPost2010PropOp53
 70
     1
102
RTVSPost2010Prop54
  1
strokes_ogs.tif
102
RTVSPost2010PropOp54
 70
     1
102
RTVSPost2010Prop55
280
     0
102
RTVSPost2010PropOp55
 70
     1
102
RTVSPost2010Prop56
140
1.0
102
RTVSPost2010PropOp56
 70
     1
102
RTVSPost2010Prop57
140
1.0
102
RTVSPost2010PropOp57
 70
     1
102
RTVSPropertyOp0
 70
     1
102
RTVSPropertyOp1
 70
     1
102
RTVSPropertyOp2
 70
     1
102
RTVSPropertyOp3
 70
     1
102
RTVSPropertyOp4
 70
     1
102
RTVSPropertyOp5
 70
     1
102
RTVSPropertyOp6
 70
     1
102
RTVSPropertyOp7
 70
     1
102
RTVSPropertyOp8
 70
     1
102
RTVSPropertyOp9
 70
     1
102
RTVSPropertyOp10
 70
     1
102
RTVSPropertyOp11
 70
     1
102
RTVSPropertyOp12
 70
     1
102
RTVSPropertyOp13
 70
     1
102
RTVSPropertyOp14
 70
     1
102
RTVSPropertyOp15
 70
     1
102
RTVSPropertyOp16
 70
     1
102
RTVSPropertyOp17
 70
     1
102
RTVSPropertyOp18
 70
     1
102
RTVSPropertyOp19
 70
     1
102
RTVSPropertyOp20
 70
     1
102
RTVSPropertyOp21
 70
     1
102
RTVSPropertyOp22
 70
     1
102
RTVSPropertyOp23
 70
     1
102
RTVSPropertyOp24
 70
     1
102
RTVSPropertyOp25
 70
     1
102
RTVSPropertyOp26
 70
     1
102
RTVSPropertyOp27
 70
     1
102
RTVSPropertyOp28
 70
     1
102
RTVSPropertyOp29
 70
     1
102
RTVSPropertyOp30
 70
     1
102
RTVSPropertyOp31
 70
     1
102
RTVSPropertyOp32
 70
     1
102
RTVSPropertyOp33
 70
     1
102
RTVSPropertyOp34
 70
     1
102
RTVSPropertyOp35
 70
     1
102
RTVSPropertyOp36
 70
     1
102
RTVSPropertyOp37
 70
     1
102
RTVSPropertyOp38
 70
     1
102
RTVSPropertyOp39
 70
     1
102
RTVSPropertyOp40
 70
     1
102
RTVSPropertyOp41
 70
     1
102
RTVSPropertyOp42
 70
     1
102
RTVSPropertyOp43
 70
     1
102
RTVSPropertyOp44
 70
     1
102
RTVSPropertyOp45
 70
     1
102
RTVSPropertyOp46
 70
     1
102
RTVSPropertyOp47
 70
     1
102
RTVSPropertyOp48
 70
     1
102
RTVSPropertyOp49
 70
     1
102
RTVSPropertyOp50
 70
     1
102
RTVSPropertyOp51
 70
     0
102
RTVSPropertyOp52
 70
     0
102
RTVSPropertyOp53
 70
     1
102
RTVSPropertyOp54
 70
     1
102
RTVSPropertyOp55
 70
     1
102
RTVSPropertyOp56
 70
     1
102
RTVSPropertyOp57
 70
     1
102
RTVSPropertyOp58
 70
     1
102
RTVSPropertyOp59
 70
     1
102
RTVSPropertyOp60
 70
     1
102
RTVSPropertyOp61
 70
     1
102
RTVSPropertyOp62
 70
     1
  0
XRECORD
  5
1860
102
{ACAD_REACTORS
330
185F
102
}
330
185F
100
AcDbXrecord
280
     1
102
RTVSPost2010Prop28
280
     0
102
RTVSPost2010PropOp28
 70
     1
102
RTVSPost2010Prop29
280
     1
102
RTVSPost2010PropOp29
 70
     1
102
RTVSPost2010Prop30
280
     1
102
RTVSPost2010PropOp30
 70
     1
102
RTVSPost2010Prop31
280
     0
102
RTVSPost2010PropOp31
 70
     1
102
RTVSPost2010Prop32
280
     0
102
RTVSPost2010PropOp32
 70
     1
102
RTVSPost2010Prop33
280
     0
102
RTVSPost2010PropOp33
 70
     1
102
RTVSPost2010Prop34
280
     0
102
RTVSPost2010PropOp34
 70
     1
102
RTVSPost2010Prop35
280
     0
102
RTVSPost2010PropOp35
 70
     1
102
RTVSPost2010Prop36
280
     0
102
RTVSPost2010PropOp36
 70
     1
102
RTVSPost2010Prop37
 90
       50
102
RTVSPost2010PropOp37
 70
     1
102
RTVSPost2010Prop38
140
0.0
102
RTVSPost2010PropOp38
 70
     1
102
RTVSPost2010Prop39
140
1.0
102
RTVSPost2010PropOp39
 70
     1
102
RTVSPost2010Prop40
 90
        0
102
RTVSPost2010PropOp40
 70
     1
102
RTVSPost2010Prop41ColorIndex
 90
       18
102
RTVSPost2010Prop41ColorRGB
 90
        0
102
RTVSPost2010PropOp41
 70
     1
102
RTVSPost2010Prop42
 90
       50
102
RTVSPost2010PropOp42
 70
     1
102
RTVSPost2010Prop43
 90
        3
102
RTVSPost2010PropOp43
 70
     1
102
RTVSPost2010Prop44ColorIndex
 90
        5
102
RTVSPost2010Prop44ColorRGB
 90
      255
102
RTVSPost2010PropOp44
 70
     1
102
RTVSPost2010Prop45
280
     0
102
RTVSPost2010PropOp45
 70
     1
102
RTVSPost2010Prop46
 90
       50
102
RTVSPost2010PropOp46
 70
     1
102
RTVSPost2010Prop47
 90
       50
102
RTVSPost2010PropOp47
 70
     1
102
RTVSPost2010Prop48
 90
       50
102
RTVSPost2010PropOp48
 70
     1
102
RTVSPost2010Prop49
280
     0
102
RTVSPost2010PropOp49
 70
     1
102
RTVSPost2010Prop50
 90
       50
102
RTVSPost2010PropOp50
 70
     1
102
RTVSPost2010Prop51ColorIndex
 90
      256
102
RTVSPost2010Prop51ColorRGB
 90
-16777216
102
RTVSPost2010PropOp51
 70
     0
102
RTVSPost2010Prop52
140
1.0
102
RTVSPost2010PropOp52
 70
     0
102
RTVSPost2010Prop53
 90
        2
102
RTVSPost2010PropOp53
 70
     1
102
RTVSPost2010Prop54
  1
strokes_ogs.tif
102
RTVSPost2010PropOp54
 70
     1
102
RTVSPost2010Prop55
280
     0
102
RTVSPost2010PropOp55
 70
     1
102
RTVSPost2010Prop56
140
1.0
102
RTVSPost2010PropOp56
 70
     1
102
RTVSPost2010Prop57
140
1.0
102
RTVSPost2010PropOp57
 70
     1
102
RTVSPropertyOp0
 70
     1
102
RTVSPropertyOp1
 70
     1
102
RTVSPropertyOp2
 70
     1
102
RTVSPropertyOp3
 70
     1
102
RTVSPropertyOp4
 70
     1
102
RTVSPropertyOp5
 70
     1
102
RTVSPropertyOp6
 70
     1
102
RTVSPropertyOp7
 70
     1
102
RTVSPropertyOp8
 70
     1
102
RTVSPropertyOp9
 70
     1
102
RTVSPropertyOp10
 70
     1
102
RTVSPropertyOp11
 70
     1
102
RTVSPropertyOp12
 70
     1
102
RTVSPropertyOp13
 70
     1
102
RTVSPropertyOp14
 70
     1
102
RTVSPropertyOp15
 70
     1
102
RTVSPropertyOp16
 70
     1
102
RTVSPropertyOp17
 70
     1
102
RTVSPropertyOp18
 70
     1
102
RTVSPropertyOp19
 70
     1
102
RTVSPropertyOp20
 70
     1
102
RTVSPropertyOp21
 70
     1
102
RTVSPropertyOp22
 70
     1
102
RTVSPropertyOp23
 70
     1
102
RTVSPropertyOp24
 70
     1
102
RTVSPropertyOp25
 70
     1
102
RTVSPropertyOp26
 70
     1
102
RTVSPropertyOp27
 70
     1
102
RTVSPropertyOp28
 70
     1
102
RTVSPropertyOp29
 70
     1
102
RTVSPropertyOp30
 70
     1
102
RTVSPropertyOp31
 70
     1
102
RTVSPropertyOp32
 70
     1
102
RTVSPropertyOp33
 70
     1
102
RTVSPropertyOp34
 70
     1
102
RTVSPropertyOp35
 70
     1
102
RTVSPropertyOp36
 70
     1
102
RTVSPropertyOp37
 70
     1
102
RTVSPropertyOp38
 70
     1
102
RTVSPropertyOp39
 70
     1
102
RTVSPropertyOp40
 70
     1
102
RTVSPropertyOp41
 70
     1
102
RTVSPropertyOp42
 70
     1
102
RTVSPropertyOp43
 70
     1
102
RTVSPropertyOp44
 70
     1
102
RTVSPropertyOp45
 70
     1
102
RTVSPropertyOp46
 70
     1
102
RTVSPropertyOp47
 70
     1
102
RTVSPropertyOp48
 70
     1
102
RTVSPropertyOp49
 70
     1
102
RTVSPropertyOp50
 70
     1
102
RTVSPropertyOp51
 70
     0
102
RTVSPropertyOp52
 70
     0
102
RTVSPropertyOp53
 70
     1
102
RTVSPropertyOp54
 70
     1
102
RTVSPropertyOp55
 70
     1
102
RTVSPropertyOp56
 70
     1
102
RTVSPropertyOp57
 70
     1
102
RTVSPropertyOp58
 70
     1
102
RTVSPropertyOp59
 70
     1
102
RTVSPropertyOp60
 70
     1
102
RTVSPropertyOp61
 70
     1
102
RTVSPropertyOp62
 70
     1
  0
XRECORD
  5
187A
102
{ACAD_REACTORS
330
1879
102
}
330
1879
100
AcDbXrecord
280
     1
102
RTVSPost2010Prop28
280
     0
102
RTVSPost2010PropOp28
 70
     0
102
RTVSPost2010Prop29
280
     1
102
RTVSPost2010PropOp29
 70
     0
102
RTVSPost2010Prop30
280
     1
102
RTVSPost2010PropOp30
 70
     0
102
RTVSPost2010Prop31
280
     0
102
RTVSPost2010PropOp31
 70
     0
102
RTVSPost2010Prop32
280
     0
102
RTVSPost2010PropOp32
 70
     0
102
RTVSPost2010Prop33
280
     0
102
RTVSPost2010PropOp33
 70
     0
102
RTVSPost2010Prop34
280
     0
102
RTVSPost2010PropOp34
 70
     0
102
RTVSPost2010Prop35
280
     0
102
RTVSPost2010PropOp35
 70
     0
102
RTVSPost2010Prop36
280
     0
102
RTVSPost2010PropOp36
 70
     0
102
RTVSPost2010Prop37
 90
       50
102
RTVSPost2010PropOp37
 70
     0
102
RTVSPost2010Prop38
140
0.0
102
RTVSPost2010PropOp38
 70
     0
102
RTVSPost2010Prop39
140
1.0
102
RTVSPost2010PropOp39
 70
     0
102
RTVSPost2010Prop40
 90
        0
102
RTVSPost2010PropOp40
 70
     0
102
RTVSPost2010Prop41ColorIndex
 90
       18
102
RTVSPost2010Prop41ColorRGB
 90
        0
102
RTVSPost2010PropOp41
 70
     0
102
RTVSPost2010Prop42
 90
       50
102
RTVSPost2010PropOp42
 70
     0
102
RTVSPost2010Prop43
 90
        3
102
RTVSPost2010PropOp43
 70
     0
102
RTVSPost2010Prop44ColorIndex
 90
        5
102
RTVSPost2010Prop44ColorRGB
 90
      255
102
RTVSPost2010PropOp44
 70
     0
102
RTVSPost2010Prop45
280
     0
102
RTVSPost2010PropOp45
 70
     0
102
RTVSPost2010Prop46
 90
       50
102
RTVSPost2010PropOp46
 70
     0
102
RTVSPost2010Prop47
 90
       50
102
RTVSPost2010PropOp47
 70
     0
102
RTVSPost2010Prop48
 90
       50
102
RTVSPost2010PropOp48
 70
     0
102
RTVSPost2010Prop49
280
     0
102
RTVSPost2010PropOp49
 70
     0
102
RTVSPost2010Prop50
 90
       50
102
RTVSPost2010PropOp50
 70
     0
102
RTVSPost2010Prop51ColorIndex
 90
      256
102
RTVSPost2010Prop51ColorRGB
 90
-16777216
102
RTVSPost2010PropOp51
 70
     0
102
RTVSPost2010Prop52
140
1.0
102
RTVSPost2010PropOp52
 70
     0
102
RTVSPost2010Prop53
 90
        2
102
RTVSPost2010PropOp53
 70
     0
102
RTVSPost2010Prop54
  1
strokes_ogs.tif
102
RTVSPost2010PropOp54
 70
     0
102
RTVSPost2010Prop55
280
     0
102
RTVSPost2010PropOp55
 70
     0
102
RTVSPost2010Prop56
140
1.0
102
RTVSPost2010PropOp56
 70
     0
102
RTVSPost2010Prop57
140
1.0
102
RTVSPost2010PropOp57
 70
     0
102
RTVSPropertyOp0
 70
     0
102
RTVSPropertyOp1
 70
     0
102
RTVSPropertyOp2
 70
     0
102
RTVSPropertyOp3
 70
     0
102
RTVSPropertyOp4
 70
     0
102
RTVSPropertyOp5
 70
     0
102
RTVSPropertyOp6
 70
     0
102
RTVSPropertyOp7
 70
     0
102
RTVSPropertyOp8
 70
     0
102
RTVSPropertyOp9
 70
     0
102
RTVSPropertyOp10
 70
     0
102
RTVSPropertyOp11
 70
     0
102
RTVSPropertyOp12
 70
     0
102
RTVSPropertyOp13
 70
     0
102
RTVSPropertyOp14
 70
     2
102
RTVSPropertyOp15
 70
     0
102
RTVSPropertyOp16
 70
     0
102
RTVSPropertyOp17
 70
     0
102
RTVSPropertyOp18
 70
     0
102
RTVSPropertyOp19
 70
     0
102
RTVSPropertyOp20
 70
     0
102
RTVSPropertyOp21
 70
     0
102
RTVSPropertyOp22
 70
     0
102
RTVSPropertyOp23
 70
     0
102
RTVSPropertyOp24
 70
     0
102
RTVSPropertyOp25
 70
     0
102
RTVSPropertyOp26
 70
     0
102
RTVSPropertyOp27
 70
     0
102
RTVSPropertyOp28
 70
     0
102
RTVSPropertyOp29
 70
     0
102
RTVSPropertyOp30
 70
     0
102
RTVSPropertyOp31
 70
     0
102
RTVSPropertyOp32
 70
     0
102
RTVSPropertyOp33
 70
     0
102
RTVSPropertyOp34
 70
     0
102
RTVSPropertyOp35
 70
     0
102
RTVSPropertyOp36
 70
     0
102
RTVSPropertyOp37
 70
     0
102
RTVSPropertyOp38
 70
     0
102
RTVSPropertyOp39
 70
     0
102
RTVSPropertyOp40
 70
     0
102
RTVSPropertyOp41
 70
     0
102
RTVSPropertyOp42
 70
     0
102
RTVSPropertyOp43
 70
     0
102
RTVSPropertyOp44
 70
     0
102
RTVSPropertyOp45
 70
     0
102
RTVSPropertyOp46
 70
     0
102
RTVSPropertyOp47
 70
     0
102
RTVSPropertyOp48
 70
     0
102
RTVSPropertyOp49
 70
     0
102
RTVSPropertyOp50
 70
     0
102
RTVSPropertyOp51
 70
     0
102
RTVSPropertyOp52
 70
     0
102
RTVSPropertyOp53
 70
     0
102
RTVSPropertyOp54
 70
     0
102
RTVSPropertyOp55
 70
     0
102
RTVSPropertyOp56
 70
     0
102
RTVSPropertyOp57
 70
     0
102
RTVSPropertyOp58
 70
     0
102
RTVSPropertyOp59
 70
     0
102
RTVSPropertyOp60
 70
     0
102
RTVSPropertyOp61
 70
     0
102
RTVSPropertyOp62
 70
     0
  0
XRECORD
  5
1868
102
{ACAD_REACTORS
330
1867
102
}
330
1867
100
AcDbXrecord
280
     1
102
RTVSPost2010Prop28
280
     0
102
RTVSPost2010PropOp28
 70
     1
102
RTVSPost2010Prop29
280
     1
102
RTVSPost2010PropOp29
 70
     1
102
RTVSPost2010Prop30
280
     1
102
RTVSPost2010PropOp30
 70
     1
102
RTVSPost2010Prop31
280
     0
102
RTVSPost2010PropOp31
 70
     1
102
RTVSPost2010Prop32
280
     0
102
RTVSPost2010PropOp32
 70
     1
102
RTVSPost2010Prop33
280
     0
102
RTVSPost2010PropOp33
 70
     1
102
RTVSPost2010Prop34
280
     0
102
RTVSPost2010PropOp34
 70
     1
102
RTVSPost2010Prop35
280
     0
102
RTVSPost2010PropOp35
 70
     1
102
RTVSPost2010Prop36
280
     0
102
RTVSPost2010PropOp36
 70
     1
102
RTVSPost2010Prop37
 90
       50
102
RTVSPost2010PropOp37
 70
     1
102
RTVSPost2010Prop38
140
0.0
102
RTVSPost2010PropOp38
 70
     1
102
RTVSPost2010Prop39
140
1.0
102
RTVSPost2010PropOp39
 70
     1
102
RTVSPost2010Prop40
 90
        0
102
RTVSPost2010PropOp40
 70
     1
102
RTVSPost2010Prop41ColorIndex
 90
       18
102
RTVSPost2010Prop41ColorRGB
 90
        0
102
RTVSPost2010PropOp41
 70
     1
102
RTVSPost2010Prop42
 90
       50
102
RTVSPost2010PropOp42
 70
     1
102
RTVSPost2010Prop43
 90
        3
102
RTVSPost2010PropOp43
 70
     1
102
RTVSPost2010Prop44ColorIndex
 90
        5
102
RTVSPost2010Prop44ColorRGB
 90
      255
102
RTVSPost2010PropOp44
 70
     1
102
RTVSPost2010Prop45
280
     0
102
RTVSPost2010PropOp45
 70
     1
102
RTVSPost2010Prop46
 90
       50
102
RTVSPost2010PropOp46
 70
     1
102
RTVSPost2010Prop47
 90
       50
102
RTVSPost2010PropOp47
 70
     1
102
RTVSPost2010Prop48
 90
       50
102
RTVSPost2010PropOp48
 70
     1
102
RTVSPost2010Prop49
280
     0
102
RTVSPost2010PropOp49
 70
     1
102
RTVSPost2010Prop50
 90
       50
102
RTVSPost2010PropOp50
 70
     1
102
RTVSPost2010Prop51ColorIndex
 90
      256
102
RTVSPost2010Prop51ColorRGB
 90
-16777216
102
RTVSPost2010PropOp51
 70
     0
102
RTVSPost2010Prop52
140
1.0
102
RTVSPost2010PropOp52
 70
     0
102
RTVSPost2010Prop53
 90
        2
102
RTVSPost2010PropOp53
 70
     1
102
RTVSPost2010Prop54
  1
strokes_ogs.tif
102
RTVSPost2010PropOp54
 70
     1
102
RTVSPost2010Prop55
280
     0
102
RTVSPost2010PropOp55
 70
     1
102
RTVSPost2010Prop56
140
1.0
102
RTVSPost2010PropOp56
 70
     1
102
RTVSPost2010Prop57
140
1.0
102
RTVSPost2010PropOp57
 70
     1
102
RTVSPropertyOp0
 70
     1
102
RTVSPropertyOp1
 70
     1
102
RTVSPropertyOp2
 70
     1
102
RTVSPropertyOp3
 70
     1
102
RTVSPropertyOp4
 70
     1
102
RTVSPropertyOp5
 70
     1
102
RTVSPropertyOp6
 70
     1
102
RTVSPropertyOp7
 70
     1
102
RTVSPropertyOp8
 70
     1
102
RTVSPropertyOp9
 70
     1
102
RTVSPropertyOp10
 70
     1
102
RTVSPropertyOp11
 70
     1
102
RTVSPropertyOp12
 70
     1
102
RTVSPropertyOp13
 70
     1
102
RTVSPropertyOp14
 70
     1
102
RTVSPropertyOp15
 70
     1
102
RTVSPropertyOp16
 70
     1
102
RTVSPropertyOp17
 70
     1
102
RTVSPropertyOp18
 70
     1
102
RTVSPropertyOp19
 70
     1
102
RTVSPropertyOp20
 70
     1
102
RTVSPropertyOp21
 70
     1
102
RTVSPropertyOp22
 70
     1
102
RTVSPropertyOp23
 70
     1
102
RTVSPropertyOp24
 70
     1
102
RTVSPropertyOp25
 70
     1
102
RTVSPropertyOp26
 70
     1
102
RTVSPropertyOp27
 70
     1
102
RTVSPropertyOp28
 70
     1
102
RTVSPropertyOp29
 70
     1
102
RTVSPropertyOp30
 70
     1
102
RTVSPropertyOp31
 70
     1
102
RTVSPropertyOp32
 70
     1
102
RTVSPropertyOp33
 70
     1
102
RTVSPropertyOp34
 70
     1
102
RTVSPropertyOp35
 70
     1
102
RTVSPropertyOp36
 70
     1
102
RTVSPropertyOp37
 70
     1
102
RTVSPropertyOp38
 70
     1
102
RTVSPropertyOp39
 70
     1
102
RTVSPropertyOp40
 70
     1
102
RTVSPropertyOp41
 70
     1
102
RTVSPropertyOp42
 70
     1
102
RTVSPropertyOp43
 70
     1
102
RTVSPropertyOp44
 70
     1
102
RTVSPropertyOp45
 70
     1
102
RTVSPropertyOp46
 70
     1
102
RTVSPropertyOp47
 70
     1
102
RTVSPropertyOp48
 70
     1
102
RTVSPropertyOp49
 70
     1
102
RTVSPropertyOp50
 70
     1
102
RTVSPropertyOp51
 70
     0
102
RTVSPropertyOp52
 70
     0
102
RTVSPropertyOp53
 70
     1
102
RTVSPropertyOp54
 70
     1
102
RTVSPropertyOp55
 70
     1
102
RTVSPropertyOp56
 70
     1
102
RTVSPropertyOp57
 70
     1
102
RTVSPropertyOp58
 70
     1
102
RTVSPropertyOp59
 70
     1
102
RTVSPropertyOp60
 70
     1
102
RTVSPropertyOp61
 70
     1
102
RTVSPropertyOp62
 70
     1
  0
XRECORD
  5
184C
102
{ACAD_REACTORS
330
184B
102
}
330
184B
100
AcDbXrecord
280
     1
102
RTVSPost2010Prop28
280
     0
102
RTVSPost2010PropOp28
 70
     1
102
RTVSPost2010Prop29
280
     1
102
RTVSPost2010PropOp29
 70
     1
102
RTVSPost2010Prop30
280
     1
102
RTVSPost2010PropOp30
 70
     1
102
RTVSPost2010Prop31
280
     0
102
RTVSPost2010PropOp31
 70
     1
102
RTVSPost2010Prop32
280
     0
102
RTVSPost2010PropOp32
 70
     1
102
RTVSPost2010Prop33
280
     0
102
RTVSPost2010PropOp33
 70
     1
102
RTVSPost2010Prop34
280
     0
102
RTVSPost2010PropOp34
 70
     1
102
RTVSPost2010Prop35
280
     0
102
RTVSPost2010PropOp35
 70
     1
102
RTVSPost2010Prop36
280
     0
102
RTVSPost2010PropOp36
 70
     1
102
RTVSPost2010Prop37
 90
       50
102
RTVSPost2010PropOp37
 70
     1
102
RTVSPost2010Prop38
140
0.0
102
RTVSPost2010PropOp38
 70
     1
102
RTVSPost2010Prop39
140
1.0
102
RTVSPost2010PropOp39
 70
     1
102
RTVSPost2010Prop40
 90
        0
102
RTVSPost2010PropOp40
 70
     1
102
RTVSPost2010Prop41ColorIndex
 90
       18
102
RTVSPost2010Prop41ColorRGB
 90
        0
102
RTVSPost2010PropOp41
 70
     1
102
RTVSPost2010Prop42
 90
       50
102
RTVSPost2010PropOp42
 70
     1
102
RTVSPost2010Prop43
 90
        3
102
RTVSPost2010PropOp43
 70
     1
102
RTVSPost2010Prop44ColorIndex
 90
        5
102
RTVSPost2010Prop44ColorRGB
 90
      255
102
RTVSPost2010PropOp44
 70
     1
102
RTVSPost2010Prop45
280
     0
102
RTVSPost2010PropOp45
 70
     1
102
RTVSPost2010Prop46
 90
       50
102
RTVSPost2010PropOp46
 70
     1
102
RTVSPost2010Prop47
 90
       50
102
RTVSPost2010PropOp47
 70
     1
102
RTVSPost2010Prop48
 90
       50
102
RTVSPost2010PropOp48
 70
     1
102
RTVSPost2010Prop49
280
     0
102
RTVSPost2010PropOp49
 70
     1
102
RTVSPost2010Prop50
 90
       50
102
RTVSPost2010PropOp50
 70
     1
102
RTVSPost2010Prop51ColorIndex
 90
      256
102
RTVSPost2010Prop51ColorRGB
 90
-16777216
102
RTVSPost2010PropOp51
 70
     0
102
RTVSPost2010Prop52
140
1.0
102
RTVSPost2010PropOp52
 70
     0
102
RTVSPost2010Prop53
 90
        2
102
RTVSPost2010PropOp53
 70
     1
102
RTVSPost2010Prop54
  1
strokes_ogs.tif
102
RTVSPost2010PropOp54
 70
     1
102
RTVSPost2010Prop55
280
     0
102
RTVSPost2010PropOp55
 70
     1
102
RTVSPost2010Prop56
140
1.0
102
RTVSPost2010PropOp56
 70
     1
102
RTVSPost2010Prop57
140
1.0
102
RTVSPost2010PropOp57
 70
     1
102
RTVSPropertyOp0
 70
     1
102
RTVSPropertyOp1
 70
     1
102
RTVSPropertyOp2
 70
     1
102
RTVSPropertyOp3
 70
     1
102
RTVSPropertyOp4
 70
     1
102
RTVSPropertyOp5
 70
     1
102
RTVSPropertyOp6
 70
     1
102
RTVSPropertyOp7
 70
     1
102
RTVSPropertyOp8
 70
     1
102
RTVSPropertyOp9
 70
     1
102
RTVSPropertyOp10
 70
     1
102
RTVSPropertyOp11
 70
     1
102
RTVSPropertyOp12
 70
     1
102
RTVSPropertyOp13
 70
     1
102
RTVSPropertyOp14
 70
     1
102
RTVSPropertyOp15
 70
     1
102
RTVSPropertyOp16
 70
     1
102
RTVSPropertyOp17
 70
     1
102
RTVSPropertyOp18
 70
     1
102
RTVSPropertyOp19
 70
     1
102
RTVSPropertyOp20
 70
     1
102
RTVSPropertyOp21
 70
     1
102
RTVSPropertyOp22
 70
     1
102
RTVSPropertyOp23
 70
     1
102
RTVSPropertyOp24
 70
     1
102
RTVSPropertyOp25
 70
     1
102
RTVSPropertyOp26
 70
     1
102
RTVSPropertyOp27
 70
     1
102
RTVSPropertyOp28
 70
     1
102
RTVSPropertyOp29
 70
     1
102
RTVSPropertyOp30
 70
     1
102
RTVSPropertyOp31
 70
     1
102
RTVSPropertyOp32
 70
     1
102
RTVSPropertyOp33
 70
     1
102
RTVSPropertyOp34
 70
     1
102
RTVSPropertyOp35
 70
     1
102
RTVSPropertyOp36
 70
     1
102
RTVSPropertyOp37
 70
     1
102
RTVSPropertyOp38
 70
     1
102
RTVSPropertyOp39
 70
     1
102
RTVSPropertyOp40
 70
     1
102
RTVSPropertyOp41
 70
     1
102
RTVSPropertyOp42
 70
     1
102
RTVSPropertyOp43
 70
     1
102
RTVSPropertyOp44
 70
     1
102
RTVSPropertyOp45
 70
     1
102
RTVSPropertyOp46
 70
     1
102
RTVSPropertyOp47
 70
     1
102
RTVSPropertyOp48
 70
     1
102
RTVSPropertyOp49
 70
     1
102
RTVSPropertyOp50
 70
     1
102
RTVSPropertyOp51
 70
     0
102
RTVSPropertyOp52
 70
     0
102
RTVSPropertyOp53
 70
     1
102
RTVSPropertyOp54
 70
     1
102
RTVSPropertyOp55
 70
     1
102
RTVSPropertyOp56
 70
     1
102
RTVSPropertyOp57
 70
     1
102
RTVSPropertyOp58
 70
     1
102
RTVSPropertyOp59
 70
     1
102
RTVSPropertyOp60
 70
     1
102
RTVSPropertyOp61
 70
     1
102
RTVSPropertyOp62
 70
     1
  0
XRECORD
  5
184E
102
{ACAD_REACTORS
330
184D
102
}
330
184D
100
AcDbXrecord
280
     1
102
RTVSPost2010Prop28
280
     0
102
RTVSPost2010PropOp28
 70
     1
102
RTVSPost2010Prop29
280
     1
102
RTVSPost2010PropOp29
 70
     1
102
RTVSPost2010Prop30
280
     1
102
RTVSPost2010PropOp30
 70
     1
102
RTVSPost2010Prop31
280
     0
102
RTVSPost2010PropOp31
 70
     1
102
RTVSPost2010Prop32
280
     0
102
RTVSPost2010PropOp32
 70
     1
102
RTVSPost2010Prop33
280
     0
102
RTVSPost2010PropOp33
 70
     1
102
RTVSPost2010Prop34
280
     0
102
RTVSPost2010PropOp34
 70
     1
102
RTVSPost2010Prop35
280
     0
102
RTVSPost2010PropOp35
 70
     1
102
RTVSPost2010Prop36
280
     0
102
RTVSPost2010PropOp36
 70
     1
102
RTVSPost2010Prop37
 90
       50
102
RTVSPost2010PropOp37
 70
     1
102
RTVSPost2010Prop38
140
0.0
102
RTVSPost2010PropOp38
 70
     1
102
RTVSPost2010Prop39
140
1.0
102
RTVSPost2010PropOp39
 70
     1
102
RTVSPost2010Prop40
 90
        0
102
RTVSPost2010PropOp40
 70
     1
102
RTVSPost2010Prop41ColorIndex
 90
       18
102
RTVSPost2010Prop41ColorRGB
 90
        0
102
RTVSPost2010PropOp41
 70
     1
102
RTVSPost2010Prop42
 90
       50
102
RTVSPost2010PropOp42
 70
     1
102
RTVSPost2010Prop43
 90
        3
102
RTVSPost2010PropOp43
 70
     1
102
RTVSPost2010Prop44ColorIndex
 90
        5
102
RTVSPost2010Prop44ColorRGB
 90
      255
102
RTVSPost2010PropOp44
 70
     1
102
RTVSPost2010Prop45
280
     0
102
RTVSPost2010PropOp45
 70
     1
102
RTVSPost2010Prop46
 90
       50
102
RTVSPost2010PropOp46
 70
     1
102
RTVSPost2010Prop47
 90
       50
102
RTVSPost2010PropOp47
 70
     1
102
RTVSPost2010Prop48
 90
       50
102
RTVSPost2010PropOp48
 70
     1
102
RTVSPost2010Prop49
280
     0
102
RTVSPost2010PropOp49
 70
     1
102
RTVSPost2010Prop50
 90
       50
102
RTVSPost2010PropOp50
 70
     1
102
RTVSPost2010Prop51ColorIndex
 90
      256
102
RTVSPost2010Prop51ColorRGB
 90
-16777216
102
RTVSPost2010PropOp51
 70
     0
102
RTVSPost2010Prop52
140
1.0
102
RTVSPost2010PropOp52
 70
     0
102
RTVSPost2010Prop53
 90
        2
102
RTVSPost2010PropOp53
 70
     1
102
RTVSPost2010Prop54
  1
strokes_ogs.tif
102
RTVSPost2010PropOp54
 70
     1
102
RTVSPost2010Prop55
280
     0
102
RTVSPost2010PropOp55
 70
     1
102
RTVSPost2010Prop56
140
1.0
102
RTVSPost2010PropOp56
 70
     1
102
RTVSPost2010Prop57
140
1.0
102
RTVSPost2010PropOp57
 70
     1
102
RTVSPropertyOp0
 70
     1
102
RTVSPropertyOp1
 70
     1
102
RTVSPropertyOp2
 70
     1
102
RTVSPropertyOp3
 70
     1
102
RTVSPropertyOp4
 70
     1
102
RTVSPropertyOp5
 70
     1
102
RTVSPropertyOp6
 70
     1
102
RTVSPropertyOp7
 70
     1
102
RTVSPropertyOp8
 70
     1
102
RTVSPropertyOp9
 70
     1
102
RTVSPropertyOp10
 70
     1
102
RTVSPropertyOp11
 70
     1
102
RTVSPropertyOp12
 70
     1
102
RTVSPropertyOp13
 70
     1
102
RTVSPropertyOp14
 70
     1
102
RTVSPropertyOp15
 70
     1
102
RTVSPropertyOp16
 70
     1
102
RTVSPropertyOp17
 70
     1
102
RTVSPropertyOp18
 70
     1
102
RTVSPropertyOp19
 70
     1
102
RTVSPropertyOp20
 70
     1
102
RTVSPropertyOp21
 70
     1
102
RTVSPropertyOp22
 70
     1
102
RTVSPropertyOp23
 70
     1
102
RTVSPropertyOp24
 70
     1
102
RTVSPropertyOp25
 70
     1
102
RTVSPropertyOp26
 70
     1
102
RTVSPropertyOp27
 70
     1
102
RTVSPropertyOp28
 70
     1
102
RTVSPropertyOp29
 70
     1
102
RTVSPropertyOp30
 70
     1
102
RTVSPropertyOp31
 70
     1
102
RTVSPropertyOp32
 70
     1
102
RTVSPropertyOp33
 70
     1
102
RTVSPropertyOp34
 70
     1
102
RTVSPropertyOp35
 70
     1
102
RTVSPropertyOp36
 70
     1
102
RTVSPropertyOp37
 70
     1
102
RTVSPropertyOp38
 70
     1
102
RTVSPropertyOp39
 70
     1
102
RTVSPropertyOp40
 70
     1
102
RTVSPropertyOp41
 70
     1
102
RTVSPropertyOp42
 70
     1
102
RTVSPropertyOp43
 70
     1
102
RTVSPropertyOp44
 70
     1
102
RTVSPropertyOp45
 70
     1
102
RTVSPropertyOp46
 70
     1
102
RTVSPropertyOp47
 70
     1
102
RTVSPropertyOp48
 70
     1
102
RTVSPropertyOp49
 70
     1
102
RTVSPropertyOp50
 70
     1
102
RTVSPropertyOp51
 70
     0
102
RTVSPropertyOp52
 70
     0
102
RTVSPropertyOp53
 70
     1
102
RTVSPropertyOp54
 70
     1
102
RTVSPropertyOp55
 70
     1
102
RTVSPropertyOp56
 70
     1
102
RTVSPropertyOp57
 70
     1
102
RTVSPropertyOp58
 70
     1
102
RTVSPropertyOp59
 70
     1
102
RTVSPropertyOp60
 70
     1
102
RTVSPropertyOp61
 70
     1
102
RTVSPropertyOp62
 70
     1
  0
XRECORD
  5
1850
102
{ACAD_REACTORS
330
184F
102
}
330
184F
100
AcDbXrecord
280
     1
102
RTVSPost2010Prop28
280
     0
102
RTVSPost2010PropOp28
 70
     1
102
RTVSPost2010Prop29
280
     1
102
RTVSPost2010PropOp29
 70
     1
102
RTVSPost2010Prop30
280
     1
102
RTVSPost2010PropOp30
 70
     1
102
RTVSPost2010Prop31
280
     0
102
RTVSPost2010PropOp31
 70
     1
102
RTVSPost2010Prop32
280
     0
102
RTVSPost2010PropOp32
 70
     1
102
RTVSPost2010Prop33
280
     0
102
RTVSPost2010PropOp33
 70
     1
102
RTVSPost2010Prop34
280
     0
102
RTVSPost2010PropOp34
 70
     1
102
RTVSPost2010Prop35
280
     0
102
RTVSPost2010PropOp35
 70
     1
102
RTVSPost2010Prop36
280
     0
102
RTVSPost2010PropOp36
 70
     1
102
RTVSPost2010Prop37
 90
       50
102
RTVSPost2010PropOp37
 70
     1
102
RTVSPost2010Prop38
140
0.0
102
RTVSPost2010PropOp38
 70
     1
102
RTVSPost2010Prop39
140
1.0
102
RTVSPost2010PropOp39
 70
     1
102
RTVSPost2010Prop40
 90
        0
102
RTVSPost2010PropOp40
 70
     1
102
RTVSPost2010Prop41ColorIndex
 90
       18
102
RTVSPost2010Prop41ColorRGB
 90
        0
102
RTVSPost2010PropOp41
 70
     1
102
RTVSPost2010Prop42
 90
       50
102
RTVSPost2010PropOp42
 70
     1
102
RTVSPost2010Prop43
 90
        3
102
RTVSPost2010PropOp43
 70
     1
102
RTVSPost2010Prop44ColorIndex
 90
        5
102
RTVSPost2010Prop44ColorRGB
 90
      255
102
RTVSPost2010PropOp44
 70
     1
102
RTVSPost2010Prop45
280
     0
102
RTVSPost2010PropOp45
 70
     1
102
RTVSPost2010Prop46
 90
       50
102
RTVSPost2010PropOp46
 70
     1
102
RTVSPost2010Prop47
 90
       50
102
RTVSPost2010PropOp47
 70
     1
102
RTVSPost2010Prop48
 90
       50
102
RTVSPost2010PropOp48
 70
     1
102
RTVSPost2010Prop49
280
     0
102
RTVSPost2010PropOp49
 70
     1
102
RTVSPost2010Prop50
 90
       50
102
RTVSPost2010PropOp50
 70
     1
102
RTVSPost2010Prop51ColorIndex
 90
      256
102
RTVSPost2010Prop51ColorRGB
 90
-16777216
102
RTVSPost2010PropOp51
 70
     0
102
RTVSPost2010Prop52
140
1.0
102
RTVSPost2010PropOp52
 70
     0
102
RTVSPost2010Prop53
 90
        2
102
RTVSPost2010PropOp53
 70
     1
102
RTVSPost2010Prop54
  1
strokes_ogs.tif
102
RTVSPost2010PropOp54
 70
     1
102
RTVSPost2010Prop55
280
     0
102
RTVSPost2010PropOp55
 70
     1
102
RTVSPost2010Prop56
140
1.0
102
RTVSPost2010PropOp56
 70
     1
102
RTVSPost2010Prop57
140
1.0
102
RTVSPost2010PropOp57
 70
     1
102
RTVSPropertyOp0
 70
     1
102
RTVSPropertyOp1
 70
     1
102
RTVSPropertyOp2
 70
     1
102
RTVSPropertyOp3
 70
     1
102
RTVSPropertyOp4
 70
     1
102
RTVSPropertyOp5
 70
     1
102
RTVSPropertyOp6
 70
     1
102
RTVSPropertyOp7
 70
     1
102
RTVSPropertyOp8
 70
     1
102
RTVSPropertyOp9
 70
     1
102
RTVSPropertyOp10
 70
     1
102
RTVSPropertyOp11
 70
     1
102
RTVSPropertyOp12
 70
     1
102
RTVSPropertyOp13
 70
     1
102
RTVSPropertyOp14
 70
     1
102
RTVSPropertyOp15
 70
     1
102
RTVSPropertyOp16
 70
     1
102
RTVSPropertyOp17
 70
     1
102
RTVSPropertyOp18
 70
     1
102
RTVSPropertyOp19
 70
     1
102
RTVSPropertyOp20
 70
     1
102
RTVSPropertyOp21
 70
     1
102
RTVSPropertyOp22
 70
     1
102
RTVSPropertyOp23
 70
     1
102
RTVSPropertyOp24
 70
     1
102
RTVSPropertyOp25
 70
     1
102
RTVSPropertyOp26
 70
     1
102
RTVSPropertyOp27
 70
     1
102
RTVSPropertyOp28
 70
     1
102
RTVSPropertyOp29
 70
     1
102
RTVSPropertyOp30
 70
     1
102
RTVSPropertyOp31
 70
     1
102
RTVSPropertyOp32
 70
     1
102
RTVSPropertyOp33
 70
     1
102
RTVSPropertyOp34
 70
     1
102
RTVSPropertyOp35
 70
     1
102
RTVSPropertyOp36
 70
     1
102
RTVSPropertyOp37
 70
     1
102
RTVSPropertyOp38
 70
     1
102
RTVSPropertyOp39
 70
     1
102
RTVSPropertyOp40
 70
     1
102
RTVSPropertyOp41
 70
     1
102
RTVSPropertyOp42
 70
     1
102
RTVSPropertyOp43
 70
     1
102
RTVSPropertyOp44
 70
     1
102
RTVSPropertyOp45
 70
     1
102
RTVSPropertyOp46
 70
     1
102
RTVSPropertyOp47
 70
     1
102
RTVSPropertyOp48
 70
     1
102
RTVSPropertyOp49
 70
     1
102
RTVSPropertyOp50
 70
     1
102
RTVSPropertyOp51
 70
     0
102
RTVSPropertyOp52
 70
     0
102
RTVSPropertyOp53
 70
     1
102
RTVSPropertyOp54
 70
     1
102
RTVSPropertyOp55
 70
     1
102
RTVSPropertyOp56
 70
     1
102
RTVSPropertyOp57
 70
     1
102
RTVSPropertyOp58
 70
     1
102
RTVSPropertyOp59
 70
     1
102
RTVSPropertyOp60
 70
     1
102
RTVSPropertyOp61
 70
     1
102
RTVSPropertyOp62
 70
     1
  0
XRECORD
  5
1852
102
{ACAD_REACTORS
330
1851
102
}
330
1851
100
AcDbXrecord
280
     1
102
RTVSPost2010Prop28
280
     0
102
RTVSPost2010PropOp28
 70
     1
102
RTVSPost2010Prop29
280
     1
102
RTVSPost2010PropOp29
 70
     1
102
RTVSPost2010Prop30
280
     1
102
RTVSPost2010PropOp30
 70
     1
102
RTVSPost2010Prop31
280
     0
102
RTVSPost2010PropOp31
 70
     1
102
RTVSPost2010Prop32
280
     0
102
RTVSPost2010PropOp32
 70
     1
102
RTVSPost2010Prop33
280
     0
102
RTVSPost2010PropOp33
 70
     1
102
RTVSPost2010Prop34
280
     0
102
RTVSPost2010PropOp34
 70
     1
102
RTVSPost2010Prop35
280
     0
102
RTVSPost2010PropOp35
 70
     1
102
RTVSPost2010Prop36
280
     0
102
RTVSPost2010PropOp36
 70
     1
102
RTVSPost2010Prop37
 90
       50
102
RTVSPost2010PropOp37
 70
     1
102
RTVSPost2010Prop38
140
0.0
102
RTVSPost2010PropOp38
 70
     1
102
RTVSPost2010Prop39
140
1.0
102
RTVSPost2010PropOp39
 70
     1
102
RTVSPost2010Prop40
 90
        0
102
RTVSPost2010PropOp40
 70
     1
102
RTVSPost2010Prop41ColorIndex
 90
       18
102
RTVSPost2010Prop41ColorRGB
 90
        0
102
RTVSPost2010PropOp41
 70
     1
102
RTVSPost2010Prop42
 90
       50
102
RTVSPost2010PropOp42
 70
     1
102
RTVSPost2010Prop43
 90
        3
102
RTVSPost2010PropOp43
 70
     1
102
RTVSPost2010Prop44ColorIndex
 90
        5
102
RTVSPost2010Prop44ColorRGB
 90
      255
102
RTVSPost2010PropOp44
 70
     1
102
RTVSPost2010Prop45
280
     0
102
RTVSPost2010PropOp45
 70
     1
102
RTVSPost2010Prop46
 90
       50
102
RTVSPost2010PropOp46
 70
     1
102
RTVSPost2010Prop47
 90
       50
102
RTVSPost2010PropOp47
 70
     1
102
RTVSPost2010Prop48
 90
       50
102
RTVSPost2010PropOp48
 70
     1
102
RTVSPost2010Prop49
280
     0
102
RTVSPost2010PropOp49
 70
     1
102
RTVSPost2010Prop50
 90
       50
102
RTVSPost2010PropOp50
 70
     1
102
RTVSPost2010Prop51ColorIndex
 90
      256
102
RTVSPost2010Prop51ColorRGB
 90
-16777216
102
RTVSPost2010PropOp51
 70
     0
102
RTVSPost2010Prop52
140
1.0
102
RTVSPost2010PropOp52
 70
     0
102
RTVSPost2010Prop53
 90
        2
102
RTVSPost2010PropOp53
 70
     1
102
RTVSPost2010Prop54
  1
strokes_ogs.tif
102
RTVSPost2010PropOp54
 70
     1
102
RTVSPost2010Prop55
280
     0
102
RTVSPost2010PropOp55
 70
     1
102
RTVSPost2010Prop56
140
1.0
102
RTVSPost2010PropOp56
 70
     1
102
RTVSPost2010Prop57
140
1.0
102
RTVSPost2010PropOp57
 70
     1
102
RTVSPropertyOp0
 70
     1
102
RTVSPropertyOp1
 70
     1
102
RTVSPropertyOp2
 70
     1
102
RTVSPropertyOp3
 70
     1
102
RTVSPropertyOp4
 70
     1
102
RTVSPropertyOp5
 70
     1
102
RTVSPropertyOp6
 70
     1
102
RTVSPropertyOp7
 70
     1
102
RTVSPropertyOp8
 70
     1
102
RTVSPropertyOp9
 70
     1
102
RTVSPropertyOp10
 70
     1
102
RTVSPropertyOp11
 70
     1
102
RTVSPropertyOp12
 70
     1
102
RTVSPropertyOp13
 70
     1
102
RTVSPropertyOp14
 70
     1
102
RTVSPropertyOp15
 70
     1
102
RTVSPropertyOp16
 70
     1
102
RTVSPropertyOp17
 70
     1
102
RTVSPropertyOp18
 70
     1
102
RTVSPropertyOp19
 70
     1
102
RTVSPropertyOp20
 70
     1
102
RTVSPropertyOp21
 70
     1
102
RTVSPropertyOp22
 70
     1
102
RTVSPropertyOp23
 70
     1
102
RTVSPropertyOp24
 70
     1
102
RTVSPropertyOp25
 70
     1
102
RTVSPropertyOp26
 70
     1
102
RTVSPropertyOp27
 70
     1
102
RTVSPropertyOp28
 70
     1
102
RTVSPropertyOp29
 70
     1
102
RTVSPropertyOp30
 70
     1
102
RTVSPropertyOp31
 70
     1
102
RTVSPropertyOp32
 70
     1
102
RTVSPropertyOp33
 70
     1
102
RTVSPropertyOp34
 70
     1
102
RTVSPropertyOp35
 70
     1
102
RTVSPropertyOp36
 70
     1
102
RTVSPropertyOp37
 70
     1
102
RTVSPropertyOp38
 70
     1
102
RTVSPropertyOp39
 70
     1
102
RTVSPropertyOp40
 70
     1
102
RTVSPropertyOp41
 70
     1
102
RTVSPropertyOp42
 70
     1
102
RTVSPropertyOp43
 70
     1
102
RTVSPropertyOp44
 70
     1
102
RTVSPropertyOp45
 70
     1
102
RTVSPropertyOp46
 70
     1
102
RTVSPropertyOp47
 70
     1
102
RTVSPropertyOp48
 70
     1
102
RTVSPropertyOp49
 70
     1
102
RTVSPropertyOp50
 70
     1
102
RTVSPropertyOp51
 70
     0
102
RTVSPropertyOp52
 70
     0
102
RTVSPropertyOp53
 70
     1
102
RTVSPropertyOp54
 70
     1
102
RTVSPropertyOp55
 70
     1
102
RTVSPropertyOp56
 70
     1
102
RTVSPropertyOp57
 70
     1
102
RTVSPropertyOp58
 70
     1
102
RTVSPropertyOp59
 70
     1
102
RTVSPropertyOp60
 70
     1
102
RTVSPropertyOp61
 70
     1
102
RTVSPropertyOp62
 70
     1
  0
XRECORD
  5
185A
102
{ACAD_REACTORS
330
1859
102
}
330
1859
100
AcDbXrecord
280
     1
102
RTVSPost2010Prop28
280
     0
102
RTVSPost2010PropOp28
 70
     1
102
RTVSPost2010Prop29
280
     1
102
RTVSPost2010PropOp29
 70
     1
102
RTVSPost2010Prop30
280
     1
102
RTVSPost2010PropOp30
 70
     1
102
RTVSPost2010Prop31
280
     0
102
RTVSPost2010PropOp31
 70
     1
102
RTVSPost2010Prop32
280
     0
102
RTVSPost2010PropOp32
 70
     1
102
RTVSPost2010Prop33
280
     0
102
RTVSPost2010PropOp33
 70
     1
102
RTVSPost2010Prop34
280
     0
102
RTVSPost2010PropOp34
 70
     1
102
RTVSPost2010Prop35
280
     0
102
RTVSPost2010PropOp35
 70
     1
102
RTVSPost2010Prop36
280
     0
102
RTVSPost2010PropOp36
 70
     1
102
RTVSPost2010Prop37
 90
       50
102
RTVSPost2010PropOp37
 70
     1
102
RTVSPost2010Prop38
140
0.0
102
RTVSPost2010PropOp38
 70
     1
102
RTVSPost2010Prop39
140
1.0
102
RTVSPost2010PropOp39
 70
     1
102
RTVSPost2010Prop40
 90
        0
102
RTVSPost2010PropOp40
 70
     1
102
RTVSPost2010Prop41ColorIndex
 90
       18
102
RTVSPost2010Prop41ColorRGB
 90
        0
102
RTVSPost2010PropOp41
 70
     1
102
RTVSPost2010Prop42
 90
       50
102
RTVSPost2010PropOp42
 70
     1
102
RTVSPost2010Prop43
 90
        3
102
RTVSPost2010PropOp43
 70
     1
102
RTVSPost2010Prop44ColorIndex
 90
        5
102
RTVSPost2010Prop44ColorRGB
 90
      255
102
RTVSPost2010PropOp44
 70
     1
102
RTVSPost2010Prop45
280
     0
102
RTVSPost2010PropOp45
 70
     1
102
RTVSPost2010Prop46
 90
       50
102
RTVSPost2010PropOp46
 70
     1
102
RTVSPost2010Prop47
 90
       50
102
RTVSPost2010PropOp47
 70
     1
102
RTVSPost2010Prop48
 90
       50
102
RTVSPost2010PropOp48
 70
     1
102
RTVSPost2010Prop49
280
     0
102
RTVSPost2010PropOp49
 70
     1
102
RTVSPost2010Prop50
 90
       50
102
RTVSPost2010PropOp50
 70
     1
102
RTVSPost2010Prop51ColorIndex
 90
      256
102
RTVSPost2010Prop51ColorRGB
 90
-16777216
102
RTVSPost2010PropOp51
 70
     0
102
RTVSPost2010Prop52
140
1.0
102
RTVSPost2010PropOp52
 70
     0
102
RTVSPost2010Prop53
 90
        2
102
RTVSPost2010PropOp53
 70
     1
102
RTVSPost2010Prop54
  1
strokes_ogs.tif
102
RTVSPost2010PropOp54
 70
     1
102
RTVSPost2010Prop55
280
     0
102
RTVSPost2010PropOp55
 70
     1
102
RTVSPost2010Prop56
140
1.0
102
RTVSPost2010PropOp56
 70
     1
102
RTVSPost2010Prop57
140
1.0
102
RTVSPost2010PropOp57
 70
     1
102
RTVSPropertyOp0
 70
     1
102
RTVSPropertyOp1
 70
     1
102
RTVSPropertyOp2
 70
     1
102
RTVSPropertyOp3
 70
     1
102
RTVSPropertyOp4
 70
     1
102
RTVSPropertyOp5
 70
     1
102
RTVSPropertyOp6
 70
     1
102
RTVSPropertyOp7
 70
     1
102
RTVSPropertyOp8
 70
     1
102
RTVSPropertyOp9
 70
     1
102
RTVSPropertyOp10
 70
     1
102
RTVSPropertyOp11
 70
     1
102
RTVSPropertyOp12
 70
     1
102
RTVSPropertyOp13
 70
     1
102
RTVSPropertyOp14
 70
     1
102
RTVSPropertyOp15
 70
     1
102
RTVSPropertyOp16
 70
     1
102
RTVSPropertyOp17
 70
     1
102
RTVSPropertyOp18
 70
     1
102
RTVSPropertyOp19
 70
     1
102
RTVSPropertyOp20
 70
     1
102
RTVSPropertyOp21
 70
     1
102
RTVSPropertyOp22
 70
     1
102
RTVSPropertyOp23
 70
     1
102
RTVSPropertyOp24
 70
     1
102
RTVSPropertyOp25
 70
     1
102
RTVSPropertyOp26
 70
     1
102
RTVSPropertyOp27
 70
     1
102
RTVSPropertyOp28
 70
     1
102
RTVSPropertyOp29
 70
     1
102
RTVSPropertyOp30
 70
     1
102
RTVSPropertyOp31
 70
     1
102
RTVSPropertyOp32
 70
     1
102
RTVSPropertyOp33
 70
     1
102
RTVSPropertyOp34
 70
     1
102
RTVSPropertyOp35
 70
     1
102
RTVSPropertyOp36
 70
     1
102
RTVSPropertyOp37
 70
     1
102
RTVSPropertyOp38
 70
     1
102
RTVSPropertyOp39
 70
     1
102
RTVSPropertyOp40
 70
     1
102
RTVSPropertyOp41
 70
     1
102
RTVSPropertyOp42
 70
     1
102
RTVSPropertyOp43
 70
     1
102
RTVSPropertyOp44
 70
     1
102
RTVSPropertyOp45
 70
     1
102
RTVSPropertyOp46
 70
     1
102
RTVSPropertyOp47
 70
     1
102
RTVSPropertyOp48
 70
     1
102
RTVSPropertyOp49
 70
     1
102
RTVSPropertyOp50
 70
     1
102
RTVSPropertyOp51
 70
     0
102
RTVSPropertyOp52
 70
     0
102
RTVSPropertyOp53
 70
     1
102
RTVSPropertyOp54
 70
     1
102
RTVSPropertyOp55
 70
     1
102
RTVSPropertyOp56
 70
     1
102
RTVSPropertyOp57
 70
     1
102
RTVSPropertyOp58
 70
     1
102
RTVSPropertyOp59
 70
     1
102
RTVSPropertyOp60
 70
     1
102
RTVSPropertyOp61
 70
     1
102
RTVSPropertyOp62
 70
     1
  0
XRECORD
  5
1876
102
{ACAD_REACTORS
330
1875
102
}
330
1875
100
AcDbXrecord
280
     1
102
RTVSPost2010Prop28
280
     0
102
RTVSPost2010PropOp28
 70
     0
102
RTVSPost2010Prop29
280
     1
102
RTVSPost2010PropOp29
 70
     0
102
RTVSPost2010Prop30
280
     1
102
RTVSPost2010PropOp30
 70
     0
102
RTVSPost2010Prop31
280
     0
102
RTVSPost2010PropOp31
 70
     0
102
RTVSPost2010Prop32
280
     0
102
RTVSPost2010PropOp32
 70
     0
102
RTVSPost2010Prop33
280
     0
102
RTVSPost2010PropOp33
 70
     0
102
RTVSPost2010Prop34
280
     0
102
RTVSPost2010PropOp34
 70
     0
102
RTVSPost2010Prop35
280
     0
102
RTVSPost2010PropOp35
 70
     0
102
RTVSPost2010Prop36
280
     0
102
RTVSPost2010PropOp36
 70
     0
102
RTVSPost2010Prop37
 90
       50
102
RTVSPost2010PropOp37
 70
     0
102
RTVSPost2010Prop38
140
0.0
102
RTVSPost2010PropOp38
 70
     0
102
RTVSPost2010Prop39
140
1.0
102
RTVSPost2010PropOp39
 70
     0
102
RTVSPost2010Prop40
 90
        0
102
RTVSPost2010PropOp40
 70
     0
102
RTVSPost2010Prop41ColorIndex
 90
       18
102
RTVSPost2010Prop41ColorRGB
 90
        0
102
RTVSPost2010PropOp41
 70
     0
102
RTVSPost2010Prop42
 90
       50
102
RTVSPost2010PropOp42
 70
     0
102
RTVSPost2010Prop43
 90
        3
102
RTVSPost2010PropOp43
 70
     0
102
RTVSPost2010Prop44ColorIndex
 90
        5
102
RTVSPost2010Prop44ColorRGB
 90
      255
102
RTVSPost2010PropOp44
 70
     0
102
RTVSPost2010Prop45
280
     0
102
RTVSPost2010PropOp45
 70
     0
102
RTVSPost2010Prop46
 90
       50
102
RTVSPost2010PropOp46
 70
     0
102
RTVSPost2010Prop47
 90
       50
102
RTVSPost2010PropOp47
 70
     0
102
RTVSPost2010Prop48
 90
       50
102
RTVSPost2010PropOp48
 70
     0
102
RTVSPost2010Prop49
280
     0
102
RTVSPost2010PropOp49
 70
     0
102
RTVSPost2010Prop50
 90
       50
102
RTVSPost2010PropOp50
 70
     0
102
RTVSPost2010Prop51ColorIndex
 90
      256
102
RTVSPost2010Prop51ColorRGB
 90
-16777216
102
RTVSPost2010PropOp51
 70
     0
102
RTVSPost2010Prop52
140
1.0
102
RTVSPost2010PropOp52
 70
     0
102
RTVSPost2010Prop53
 90
        2
102
RTVSPost2010PropOp53
 70
     0
102
RTVSPost2010Prop54
  1
strokes_ogs.tif
102
RTVSPost2010PropOp54
 70
     0
102
RTVSPost2010Prop55
280
     0
102
RTVSPost2010PropOp55
 70
     0
102
RTVSPost2010Prop56
140
1.0
102
RTVSPost2010PropOp56
 70
     0
102
RTVSPost2010Prop57
140
1.0
102
RTVSPost2010PropOp57
 70
     0
102
RTVSPropertyOp0
 70
     0
102
RTVSPropertyOp1
 70
     0
102
RTVSPropertyOp2
 70
     0
102
RTVSPropertyOp3
 70
     0
102
RTVSPropertyOp4
 70
     0
102
RTVSPropertyOp5
 70
     0
102
RTVSPropertyOp6
 70
     0
102
RTVSPropertyOp7
 70
     0
102
RTVSPropertyOp8
 70
     0
102
RTVSPropertyOp9
 70
     0
102
RTVSPropertyOp10
 70
     0
102
RTVSPropertyOp11
 70
     0
102
RTVSPropertyOp12
 70
     0
102
RTVSPropertyOp13
 70
     0
102
RTVSPropertyOp14
 70
     2
102
RTVSPropertyOp15
 70
     0
102
RTVSPropertyOp16
 70
     0
102
RTVSPropertyOp17
 70
     0
102
RTVSPropertyOp18
 70
     0
102
RTVSPropertyOp19
 70
     0
102
RTVSPropertyOp20
 70
     0
102
RTVSPropertyOp21
 70
     0
102
RTVSPropertyOp22
 70
     0
102
RTVSPropertyOp23
 70
     0
102
RTVSPropertyOp24
 70
     0
102
RTVSPropertyOp25
 70
     0
102
RTVSPropertyOp26
 70
     0
102
RTVSPropertyOp27
 70
     0
102
RTVSPropertyOp28
 70
     0
102
RTVSPropertyOp29
 70
     0
102
RTVSPropertyOp30
 70
     0
102
RTVSPropertyOp31
 70
     0
102
RTVSPropertyOp32
 70
     0
102
RTVSPropertyOp33
 70
     0
102
RTVSPropertyOp34
 70
     0
102
RTVSPropertyOp35
 70
     0
102
RTVSPropertyOp36
 70
     0
102
RTVSPropertyOp37
 70
     0
102
RTVSPropertyOp38
 70
     0
102
RTVSPropertyOp39
 70
     0
102
RTVSPropertyOp40
 70
     0
102
RTVSPropertyOp41
 70
     0
102
RTVSPropertyOp42
 70
     0
102
RTVSPropertyOp43
 70
     0
102
RTVSPropertyOp44
 70
     0
102
RTVSPropertyOp45
 70
     0
102
RTVSPropertyOp46
 70
     0
102
RTVSPropertyOp47
 70
     0
102
RTVSPropertyOp48
 70
     0
102
RTVSPropertyOp49
 70
     0
102
RTVSPropertyOp50
 70
     0
102
RTVSPropertyOp51
 70
     0
102
RTVSPropertyOp52
 70
     0
102
RTVSPropertyOp53
 70
     0
102
RTVSPropertyOp54
 70
     0
102
RTVSPropertyOp55
 70
     0
102
RTVSPropertyOp56
 70
     0
102
RTVSPropertyOp57
 70
     0
102
RTVSPropertyOp58
 70
     0
102
RTVSPropertyOp59
 70
     0
102
RTVSPropertyOp60
 70
     0
102
RTVSPropertyOp61
 70
     0
102
RTVSPropertyOp62
 70
     0
  0
XRECORD
  5
1866
102
{ACAD_REACTORS
330
1865
102
}
330
1865
100
AcDbXrecord
280
     1
102
RTVSPost2010Prop28
280
     0
102
RTVSPost2010PropOp28
 70
     1
102
RTVSPost2010Prop29
280
     1
102
RTVSPost2010PropOp29
 70
     1
102
RTVSPost2010Prop30
280
     1
102
RTVSPost2010PropOp30
 70
     1
102
RTVSPost2010Prop31
280
     0
102
RTVSPost2010PropOp31
 70
     1
102
RTVSPost2010Prop32
280
     0
102
RTVSPost2010PropOp32
 70
     1
102
RTVSPost2010Prop33
280
     0
102
RTVSPost2010PropOp33
 70
     1
102
RTVSPost2010Prop34
280
     0
102
RTVSPost2010PropOp34
 70
     1
102
RTVSPost2010Prop35
280
     0
102
RTVSPost2010PropOp35
 70
     1
102
RTVSPost2010Prop36
280
     0
102
RTVSPost2010PropOp36
 70
     1
102
RTVSPost2010Prop37
 90
       50
102
RTVSPost2010PropOp37
 70
     1
102
RTVSPost2010Prop38
140
0.0
102
RTVSPost2010PropOp38
 70
     1
102
RTVSPost2010Prop39
140
1.0
102
RTVSPost2010PropOp39
 70
     1
102
RTVSPost2010Prop40
 90
        0
102
RTVSPost2010PropOp40
 70
     1
102
RTVSPost2010Prop41ColorIndex
 90
       18
102
RTVSPost2010Prop41ColorRGB
 90
        0
102
RTVSPost2010PropOp41
 70
     1
102
RTVSPost2010Prop42
 90
       50
102
RTVSPost2010PropOp42
 70
     1
102
RTVSPost2010Prop43
 90
        3
102
RTVSPost2010PropOp43
 70
     1
102
RTVSPost2010Prop44ColorIndex
 90
        5
102
RTVSPost2010Prop44ColorRGB
 90
      255
102
RTVSPost2010PropOp44
 70
     1
102
RTVSPost2010Prop45
280
     0
102
RTVSPost2010PropOp45
 70
     1
102
RTVSPost2010Prop46
 90
       50
102
RTVSPost2010PropOp46
 70
     1
102
RTVSPost2010Prop47
 90
       50
102
RTVSPost2010PropOp47
 70
     1
102
RTVSPost2010Prop48
 90
       50
102
RTVSPost2010PropOp48
 70
     1
102
RTVSPost2010Prop49
280
     0
102
RTVSPost2010PropOp49
 70
     1
102
RTVSPost2010Prop50
 90
       50
102
RTVSPost2010PropOp50
 70
     1
102
RTVSPost2010Prop51ColorIndex
 90
      256
102
RTVSPost2010Prop51ColorRGB
 90
-16777216
102
RTVSPost2010PropOp51
 70
     0
102
RTVSPost2010Prop52
140
1.0
102
RTVSPost2010PropOp52
 70
     0
102
RTVSPost2010Prop53
 90
        2
102
RTVSPost2010PropOp53
 70
     1
102
RTVSPost2010Prop54
  1
strokes_ogs.tif
102
RTVSPost2010PropOp54
 70
     1
102
RTVSPost2010Prop55
280
     0
102
RTVSPost2010PropOp55
 70
     1
102
RTVSPost2010Prop56
140
1.0
102
RTVSPost2010PropOp56
 70
     1
102
RTVSPost2010Prop57
140
1.0
102
RTVSPost2010PropOp57
 70
     1
102
RTVSPropertyOp0
 70
     1
102
RTVSPropertyOp1
 70
     1
102
RTVSPropertyOp2
 70
     1
102
RTVSPropertyOp3
 70
     1
102
RTVSPropertyOp4
 70
     1
102
RTVSPropertyOp5
 70
     1
102
RTVSPropertyOp6
 70
     1
102
RTVSPropertyOp7
 70
     1
102
RTVSPropertyOp8
 70
     1
102
RTVSPropertyOp9
 70
     1
102
RTVSPropertyOp10
 70
     1
102
RTVSPropertyOp11
 70
     1
102
RTVSPropertyOp12
 70
     1
102
RTVSPropertyOp13
 70
     1
102
RTVSPropertyOp14
 70
     1
102
RTVSPropertyOp15
 70
     1
102
RTVSPropertyOp16
 70
     1
102
RTVSPropertyOp17
 70
     1
102
RTVSPropertyOp18
 70
     1
102
RTVSPropertyOp19
 70
     1
102
RTVSPropertyOp20
 70
     1
102
RTVSPropertyOp21
 70
     1
102
RTVSPropertyOp22
 70
     1
102
RTVSPropertyOp23
 70
     1
102
RTVSPropertyOp24
 70
     1
102
RTVSPropertyOp25
 70
     1
102
RTVSPropertyOp26
 70
     1
102
RTVSPropertyOp27
 70
     1
102
RTVSPropertyOp28
 70
     1
102
RTVSPropertyOp29
 70
     1
102
RTVSPropertyOp30
 70
     1
102
RTVSPropertyOp31
 70
     1
102
RTVSPropertyOp32
 70
     1
102
RTVSPropertyOp33
 70
     1
102
RTVSPropertyOp34
 70
     1
102
RTVSPropertyOp35
 70
     1
102
RTVSPropertyOp36
 70
     1
102
RTVSPropertyOp37
 70
     1
102
RTVSPropertyOp38
 70
     1
102
RTVSPropertyOp39
 70
     1
102
RTVSPropertyOp40
 70
     1
102
RTVSPropertyOp41
 70
     1
102
RTVSPropertyOp42
 70
     1
102
RTVSPropertyOp43
 70
     1
102
RTVSPropertyOp44
 70
     1
102
RTVSPropertyOp45
 70
     1
102
RTVSPropertyOp46
 70
     1
102
RTVSPropertyOp47
 70
     1
102
RTVSPropertyOp48
 70
     1
102
RTVSPropertyOp49
 70
     1
102
RTVSPropertyOp50
 70
     1
102
RTVSPropertyOp51
 70
     0
102
RTVSPropertyOp52
 70
     0
102
RTVSPropertyOp53
 70
     1
102
RTVSPropertyOp54
 70
     1
102
RTVSPropertyOp55
 70
     1
102
RTVSPropertyOp56
 70
     1
102
RTVSPropertyOp57
 70
     1
102
RTVSPropertyOp58
 70
     1
102
RTVSPropertyOp59
 70
     1
102
RTVSPropertyOp60
 70
     1
102
RTVSPropertyOp61
 70
     1
102
RTVSPropertyOp62
 70
     1
  0
XRECORD
  5
1878
102
{ACAD_REACTORS
330
1877
102
}
330
1877
100
AcDbXrecord
280
     1
102
RTVSPost2010Prop28
280
     0
102
RTVSPost2010PropOp28
 70
     0
102
RTVSPost2010Prop29
280
     1
102
RTVSPost2010PropOp29
 70
     0
102
RTVSPost2010Prop30
280
     1
102
RTVSPost2010PropOp30
 70
     0
102
RTVSPost2010Prop31
280
     0
102
RTVSPost2010PropOp31
 70
     0
102
RTVSPost2010Prop32
280
     0
102
RTVSPost2010PropOp32
 70
     0
102
RTVSPost2010Prop33
280
     0
102
RTVSPost2010PropOp33
 70
     0
102
RTVSPost2010Prop34
280
     0
102
RTVSPost2010PropOp34
 70
     0
102
RTVSPost2010Prop35
280
     0
102
RTVSPost2010PropOp35
 70
     0
102
RTVSPost2010Prop36
280
     0
102
RTVSPost2010PropOp36
 70
     0
102
RTVSPost2010Prop37
 90
       50
102
RTVSPost2010PropOp37
 70
     0
102
RTVSPost2010Prop38
140
0.0
102
RTVSPost2010PropOp38
 70
     0
102
RTVSPost2010Prop39
140
1.0
102
RTVSPost2010PropOp39
 70
     0
102
RTVSPost2010Prop40
 90
        0
102
RTVSPost2010PropOp40
 70
     0
102
RTVSPost2010Prop41ColorIndex
 90
       18
102
RTVSPost2010Prop41ColorRGB
 90
        0
102
RTVSPost2010PropOp41
 70
     0
102
RTVSPost2010Prop42
 90
       50
102
RTVSPost2010PropOp42
 70
     0
102
RTVSPost2010Prop43
 90
        3
102
RTVSPost2010PropOp43
 70
     0
102
RTVSPost2010Prop44ColorIndex
 90
        5
102
RTVSPost2010Prop44ColorRGB
 90
      255
102
RTVSPost2010PropOp44
 70
     0
102
RTVSPost2010Prop45
280
     0
102
RTVSPost2010PropOp45
 70
     0
102
RTVSPost2010Prop46
 90
       50
102
RTVSPost2010PropOp46
 70
     0
102
RTVSPost2010Prop47
 90
       50
102
RTVSPost2010PropOp47
 70
     0
102
RTVSPost2010Prop48
 90
       50
102
RTVSPost2010PropOp48
 70
     0
102
RTVSPost2010Prop49
280
     0
102
RTVSPost2010PropOp49
 70
     0
102
RTVSPost2010Prop50
 90
       50
102
RTVSPost2010PropOp50
 70
     0
102
RTVSPost2010Prop51ColorIndex
 90
      256
102
RTVSPost2010Prop51ColorRGB
 90
-16777216
102
RTVSPost2010PropOp51
 70
     0
102
RTVSPost2010Prop52
140
1.0
102
RTVSPost2010PropOp52
 70
     0
102
RTVSPost2010Prop53
 90
        2
102
RTVSPost2010PropOp53
 70
     0
102
RTVSPost2010Prop54
  1
strokes_ogs.tif
102
RTVSPost2010PropOp54
 70
     0
102
RTVSPost2010Prop55
280
     0
102
RTVSPost2010PropOp55
 70
     0
102
RTVSPost2010Prop56
140
1.0
102
RTVSPost2010PropOp56
 70
     0
102
RTVSPost2010Prop57
140
1.0
102
RTVSPost2010PropOp57
 70
     0
102
RTVSPropertyOp0
 70
     0
102
RTVSPropertyOp1
 70
     0
102
RTVSPropertyOp2
 70
     0
102
RTVSPropertyOp3
 70
     0
102
RTVSPropertyOp4
 70
     0
102
RTVSPropertyOp5
 70
     0
102
RTVSPropertyOp6
 70
     0
102
RTVSPropertyOp7
 70
     0
102
RTVSPropertyOp8
 70
     0
102
RTVSPropertyOp9
 70
     0
102
RTVSPropertyOp10
 70
     0
102
RTVSPropertyOp11
 70
     0
102
RTVSPropertyOp12
 70
     0
102
RTVSPropertyOp13
 70
     0
102
RTVSPropertyOp14
 70
     2
102
RTVSPropertyOp15
 70
     0
102
RTVSPropertyOp16
 70
     0
102
RTVSPropertyOp17
 70
     0
102
RTVSPropertyOp18
 70
     0
102
RTVSPropertyOp19
 70
     0
102
RTVSPropertyOp20
 70
     0
102
RTVSPropertyOp21
 70
     0
102
RTVSPropertyOp22
 70
     0
102
RTVSPropertyOp23
 70
     0
102
RTVSPropertyOp24
 70
     0
102
RTVSPropertyOp25
 70
     0
102
RTVSPropertyOp26
 70
     0
102
RTVSPropertyOp27
 70
     0
102
RTVSPropertyOp28
 70
     0
102
RTVSPropertyOp29
 70
     0
102
RTVSPropertyOp30
 70
     0
102
RTVSPropertyOp31
 70
     0
102
RTVSPropertyOp32
 70
     0
102
RTVSPropertyOp33
 70
     0
102
RTVSPropertyOp34
 70
     0
102
RTVSPropertyOp35
 70
     0
102
RTVSPropertyOp36
 70
     0
102
RTVSPropertyOp37
 70
     0
102
RTVSPropertyOp38
 70
     0
102
RTVSPropertyOp39
 70
     0
102
RTVSPropertyOp40
 70
     0
102
RTVSPropertyOp41
 70
     0
102
RTVSPropertyOp42
 70
     0
102
RTVSPropertyOp43
 70
     0
102
RTVSPropertyOp44
 70
     0
102
RTVSPropertyOp45
 70
     0
102
RTVSPropertyOp46
 70
     0
102
RTVSPropertyOp47
 70
     0
102
RTVSPropertyOp48
 70
     0
102
RTVSPropertyOp49
 70
     0
102
RTVSPropertyOp50
 70
     0
102
RTVSPropertyOp51
 70
     0
102
RTVSPropertyOp52
 70
     0
102
RTVSPropertyOp53
 70
     0
102
RTVSPropertyOp54
 70
     0
102
RTVSPropertyOp55
 70
     0
102
RTVSPropertyOp56
 70
     0
102
RTVSPropertyOp57
 70
     0
102
RTVSPropertyOp58
 70
     0
102
RTVSPropertyOp59
 70
     0
102
RTVSPropertyOp60
 70
     0
102
RTVSPropertyOp61
 70
     0
102
RTVSPropertyOp62
 70
     0
  0
XRECORD
  5
185E
102
{ACAD_REACTORS
330
185D
102
}
330
185D
100
AcDbXrecord
280
     1
102
RTVSPost2010Prop28
280
     0
102
RTVSPost2010PropOp28
 70
     1
102
RTVSPost2010Prop29
280
     1
102
RTVSPost2010PropOp29
 70
     1
102
RTVSPost2010Prop30
280
     1
102
RTVSPost2010PropOp30
 70
     1
102
RTVSPost2010Prop31
280
     0
102
RTVSPost2010PropOp31
 70
     1
102
RTVSPost2010Prop32
280
     0
102
RTVSPost2010PropOp32
 70
     1
102
RTVSPost2010Prop33
280
     0
102
RTVSPost2010PropOp33
 70
     1
102
RTVSPost2010Prop34
280
     0
102
RTVSPost2010PropOp34
 70
     1
102
RTVSPost2010Prop35
280
     0
102
RTVSPost2010PropOp35
 70
     1
102
RTVSPost2010Prop36
280
     0
102
RTVSPost2010PropOp36
 70
     1
102
RTVSPost2010Prop37
 90
       50
102
RTVSPost2010PropOp37
 70
     1
102
RTVSPost2010Prop38
140
0.0
102
RTVSPost2010PropOp38
 70
     1
102
RTVSPost2010Prop39
140
1.0
102
RTVSPost2010PropOp39
 70
     1
102
RTVSPost2010Prop40
 90
        0
102
RTVSPost2010PropOp40
 70
     1
102
RTVSPost2010Prop41ColorIndex
 90
       18
102
RTVSPost2010Prop41ColorRGB
 90
        0
102
RTVSPost2010PropOp41
 70
     1
102
RTVSPost2010Prop42
 90
       50
102
RTVSPost2010PropOp42
 70
     1
102
RTVSPost2010Prop43
 90
        3
102
RTVSPost2010PropOp43
 70
     1
102
RTVSPost2010Prop44ColorIndex
 90
        5
102
RTVSPost2010Prop44ColorRGB
 90
      255
102
RTVSPost2010PropOp44
 70
     1
102
RTVSPost2010Prop45
280
     0
102
RTVSPost2010PropOp45
 70
     1
102
RTVSPost2010Prop46
 90
       50
102
RTVSPost2010PropOp46
 70
     1
102
RTVSPost2010Prop47
 90
       50
102
RTVSPost2010PropOp47
 70
     1
102
RTVSPost2010Prop48
 90
       50
102
RTVSPost2010PropOp48
 70
     1
102
RTVSPost2010Prop49
280
     0
102
RTVSPost2010PropOp49
 70
     1
102
RTVSPost2010Prop50
 90
       50
102
RTVSPost2010PropOp50
 70
     1
102
RTVSPost2010Prop51ColorIndex
 90
      256
102
RTVSPost2010Prop51ColorRGB
 90
-16777216
102
RTVSPost2010PropOp51
 70
     0
102
RTVSPost2010Prop52
140
1.0
102
RTVSPost2010PropOp52
 70
     0
102
RTVSPost2010Prop53
 90
        2
102
RTVSPost2010PropOp53
 70
     1
102
RTVSPost2010Prop54
  1
strokes_ogs.tif
102
RTVSPost2010PropOp54
 70
     1
102
RTVSPost2010Prop55
280
     0
102
RTVSPost2010PropOp55
 70
     1
102
RTVSPost2010Prop56
140
1.0
102
RTVSPost2010PropOp56
 70
     1
102
RTVSPost2010Prop57
140
1.0
102
RTVSPost2010PropOp57
 70
     1
102
RTVSPropertyOp0
 70
     1
102
RTVSPropertyOp1
 70
     1
102
RTVSPropertyOp2
 70
     1
102
RTVSPropertyOp3
 70
     1
102
RTVSPropertyOp4
 70
     1
102
RTVSPropertyOp5
 70
     1
102
RTVSPropertyOp6
 70
     1
102
RTVSPropertyOp7
 70
     1
102
RTVSPropertyOp8
 70
     1
102
RTVSPropertyOp9
 70
     1
102
RTVSPropertyOp10
 70
     1
102
RTVSPropertyOp11
 70
     1
102
RTVSPropertyOp12
 70
     1
102
RTVSPropertyOp13
 70
     1
102
RTVSPropertyOp14
 70
     1
102
RTVSPropertyOp15
 70
     1
102
RTVSPropertyOp16
 70
     1
102
RTVSPropertyOp17
 70
     1
102
RTVSPropertyOp18
 70
     1
102
RTVSPropertyOp19
 70
     1
102
RTVSPropertyOp20
 70
     1
102
RTVSPropertyOp21
 70
     1
102
RTVSPropertyOp22
 70
     1
102
RTVSPropertyOp23
 70
     1
102
RTVSPropertyOp24
 70
     1
102
RTVSPropertyOp25
 70
     1
102
RTVSPropertyOp26
 70
     1
102
RTVSPropertyOp27
 70
     1
102
RTVSPropertyOp28
 70
     1
102
RTVSPropertyOp29
 70
     1
102
RTVSPropertyOp30
 70
     1
102
RTVSPropertyOp31
 70
     1
102
RTVSPropertyOp32
 70
     1
102
RTVSPropertyOp33
 70
     1
102
RTVSPropertyOp34
 70
     1
102
RTVSPropertyOp35
 70
     1
102
RTVSPropertyOp36
 70
     1
102
RTVSPropertyOp37
 70
     1
102
RTVSPropertyOp38
 70
     1
102
RTVSPropertyOp39
 70
     1
102
RTVSPropertyOp40
 70
     1
102
RTVSPropertyOp41
 70
     1
102
RTVSPropertyOp42
 70
     1
102
RTVSPropertyOp43
 70
     1
102
RTVSPropertyOp44
 70
     1
102
RTVSPropertyOp45
 70
     1
102
RTVSPropertyOp46
 70
     1
102
RTVSPropertyOp47
 70
     1
102
RTVSPropertyOp48
 70
     1
102
RTVSPropertyOp49
 70
     1
102
RTVSPropertyOp50
 70
     1
102
RTVSPropertyOp51
 70
     0
102
RTVSPropertyOp52
 70
     0
102
RTVSPropertyOp53
 70
     1
102
RTVSPropertyOp54
 70
     1
102
RTVSPropertyOp55
 70
     1
102
RTVSPropertyOp56
 70
     1
102
RTVSPropertyOp57
 70
     1
102
RTVSPropertyOp58
 70
     1
102
RTVSPropertyOp59
 70
     1
102
RTVSPropertyOp60
 70
     1
102
RTVSPropertyOp61
 70
     1
102
RTVSPropertyOp62
 70
     1
  0
XRECORD
  5
1874
102
{ACAD_REACTORS
330
1873
102
}
330
1873
100
AcDbXrecord
280
     1
102
RTVSPost2010Prop28
280
     0
102
RTVSPost2010PropOp28
 70
     1
102
RTVSPost2010Prop29
280
     1
102
RTVSPost2010PropOp29
 70
     1
102
RTVSPost2010Prop30
280
     1
102
RTVSPost2010PropOp30
 70
     1
102
RTVSPost2010Prop31
280
     0
102
RTVSPost2010PropOp31
 70
     1
102
RTVSPost2010Prop32
280
     0
102
RTVSPost2010PropOp32
 70
     1
102
RTVSPost2010Prop33
280
     0
102
RTVSPost2010PropOp33
 70
     1
102
RTVSPost2010Prop34
280
     0
102
RTVSPost2010PropOp34
 70
     1
102
RTVSPost2010Prop35
280
     0
102
RTVSPost2010PropOp35
 70
     1
102
RTVSPost2010Prop36
280
     0
102
RTVSPost2010PropOp36
 70
     1
102
RTVSPost2010Prop37
 90
       50
102
RTVSPost2010PropOp37
 70
     1
102
RTVSPost2010Prop38
140
0.0
102
RTVSPost2010PropOp38
 70
     1
102
RTVSPost2010Prop39
140
1.0
102
RTVSPost2010PropOp39
 70
     1
102
RTVSPost2010Prop40
 90
        0
102
RTVSPost2010PropOp40
 70
     1
102
RTVSPost2010Prop41ColorIndex
 90
       18
102
RTVSPost2010Prop41ColorRGB
 90
        0
102
RTVSPost2010PropOp41
 70
     1
102
RTVSPost2010Prop42
 90
       50
102
RTVSPost2010PropOp42
 70
     1
102
RTVSPost2010Prop43
 90
        3
102
RTVSPost2010PropOp43
 70
     1
102
RTVSPost2010Prop44ColorIndex
 90
        5
102
RTVSPost2010Prop44ColorRGB
 90
      255
102
RTVSPost2010PropOp44
 70
     1
102
RTVSPost2010Prop45
280
     0
102
RTVSPost2010PropOp45
 70
     1
102
RTVSPost2010Prop46
 90
       50
102
RTVSPost2010PropOp46
 70
     1
102
RTVSPost2010Prop47
 90
       50
102
RTVSPost2010PropOp47
 70
     1
102
RTVSPost2010Prop48
 90
       50
102
RTVSPost2010PropOp48
 70
     1
102
RTVSPost2010Prop49
280
     0
102
RTVSPost2010PropOp49
 70
     1
102
RTVSPost2010Prop50
 90
       50
102
RTVSPost2010PropOp50
 70
     1
102
RTVSPost2010Prop51ColorIndex
 90
      256
102
RTVSPost2010Prop51ColorRGB
 90
-16777216
102
RTVSPost2010PropOp51
 70
     0
102
RTVSPost2010Prop52
140
1.0
102
RTVSPost2010PropOp52
 70
     0
102
RTVSPost2010Prop53
 90
        2
102
RTVSPost2010PropOp53
 70
     1
102
RTVSPost2010Prop54
  1
strokes_ogs.tif
102
RTVSPost2010PropOp54
 70
     1
102
RTVSPost2010Prop55
280
     0
102
RTVSPost2010PropOp55
 70
     1
102
RTVSPost2010Prop56
140
1.0
102
RTVSPost2010PropOp56
 70
     1
102
RTVSPost2010Prop57
140
1.0
102
RTVSPost2010PropOp57
 70
     1
102
RTVSPropertyOp0
 70
     1
102
RTVSPropertyOp1
 70
     1
102
RTVSPropertyOp2
 70
     1
102
RTVSPropertyOp3
 70
     1
102
RTVSPropertyOp4
 70
     1
102
RTVSPropertyOp5
 70
     1
102
RTVSPropertyOp6
 70
     1
102
RTVSPropertyOp7
 70
     1
102
RTVSPropertyOp8
 70
     1
102
RTVSPropertyOp9
 70
     1
102
RTVSPropertyOp10
 70
     1
102
RTVSPropertyOp11
 70
     1
102
RTVSPropertyOp12
 70
     1
102
RTVSPropertyOp13
 70
     1
102
RTVSPropertyOp14
 70
     1
102
RTVSPropertyOp15
 70
     1
102
RTVSPropertyOp16
 70
     1
102
RTVSPropertyOp17
 70
     1
102
RTVSPropertyOp18
 70
     1
102
RTVSPropertyOp19
 70
     1
102
RTVSPropertyOp20
 70
     1
102
RTVSPropertyOp21
 70
     1
102
RTVSPropertyOp22
 70
     1
102
RTVSPropertyOp23
 70
     1
102
RTVSPropertyOp24
 70
     1
102
RTVSPropertyOp25
 70
     1
102
RTVSPropertyOp26
 70
     1
102
RTVSPropertyOp27
 70
     1
102
RTVSPropertyOp28
 70
     1
102
RTVSPropertyOp29
 70
     1
102
RTVSPropertyOp30
 70
     1
102
RTVSPropertyOp31
 70
     1
102
RTVSPropertyOp32
 70
     1
102
RTVSPropertyOp33
 70
     1
102
RTVSPropertyOp34
 70
     1
102
RTVSPropertyOp35
 70
     1
102
RTVSPropertyOp36
 70
     1
102
RTVSPropertyOp37
 70
     1
102
RTVSPropertyOp38
 70
     1
102
RTVSPropertyOp39
 70
     1
102
RTVSPropertyOp40
 70
     1
102
RTVSPropertyOp41
 70
     1
102
RTVSPropertyOp42
 70
     1
102
RTVSPropertyOp43
 70
     1
102
RTVSPropertyOp44
 70
     1
102
RTVSPropertyOp45
 70
     1
102
RTVSPropertyOp46
 70
     1
102
RTVSPropertyOp47
 70
     1
102
RTVSPropertyOp48
 70
     1
102
RTVSPropertyOp49
 70
     1
102
RTVSPropertyOp50
 70
     1
102
RTVSPropertyOp51
 70
     0
102
RTVSPropertyOp52
 70
     0
102
RTVSPropertyOp53
 70
     1
102
RTVSPropertyOp54
 70
     1
102
RTVSPropertyOp55
 70
     1
102
RTVSPropertyOp56
 70
     1
102
RTVSPropertyOp57
 70
     1
102
RTVSPropertyOp58
 70
     1
102
RTVSPropertyOp59
 70
     1
102
RTVSPropertyOp60
 70
     1
102
RTVSPropertyOp61
 70
     1
102
RTVSPropertyOp62
 70
     1
  0
XRECORD
  5
1872
102
{ACAD_REACTORS
330
1871
102
}
330
1871
100
AcDbXrecord
280
     1
102
RTVSPost2010Prop28
280
     0
102
RTVSPost2010PropOp28
 70
     1
102
RTVSPost2010Prop29
280
     1
102
RTVSPost2010PropOp29
 70
     1
102
RTVSPost2010Prop30
280
     1
102
RTVSPost2010PropOp30
 70
     1
102
RTVSPost2010Prop31
280
     0
102
RTVSPost2010PropOp31
 70
     1
102
RTVSPost2010Prop32
280
     0
102
RTVSPost2010PropOp32
 70
     1
102
RTVSPost2010Prop33
280
     0
102
RTVSPost2010PropOp33
 70
     1
102
RTVSPost2010Prop34
280
     0
102
RTVSPost2010PropOp34
 70
     1
102
RTVSPost2010Prop35
280
     0
102
RTVSPost2010PropOp35
 70
     1
102
RTVSPost2010Prop36
280
     0
102
RTVSPost2010PropOp36
 70
     1
102
RTVSPost2010Prop37
 90
       50
102
RTVSPost2010PropOp37
 70
     1
102
RTVSPost2010Prop38
140
0.0
102
RTVSPost2010PropOp38
 70
     1
102
RTVSPost2010Prop39
140
1.0
102
RTVSPost2010PropOp39
 70
     1
102
RTVSPost2010Prop40
 90
        0
102
RTVSPost2010PropOp40
 70
     1
102
RTVSPost2010Prop41ColorIndex
 90
       18
102
RTVSPost2010Prop41ColorRGB
 90
        0
102
RTVSPost2010PropOp41
 70
     1
102
RTVSPost2010Prop42
 90
       50
102
RTVSPost2010PropOp42
 70
     1
102
RTVSPost2010Prop43
 90
        3
102
RTVSPost2010PropOp43
 70
     1
102
RTVSPost2010Prop44ColorIndex
 90
        5
102
RTVSPost2010Prop44ColorRGB
 90
      255
102
RTVSPost2010PropOp44
 70
     1
102
RTVSPost2010Prop45
280
     0
102
RTVSPost2010PropOp45
 70
     1
102
RTVSPost2010Prop46
 90
       50
102
RTVSPost2010PropOp46
 70
     1
102
RTVSPost2010Prop47
 90
       50
102
RTVSPost2010PropOp47
 70
     1
102
RTVSPost2010Prop48
 90
       50
102
RTVSPost2010PropOp48
 70
     1
102
RTVSPost2010Prop49
280
     0
102
RTVSPost2010PropOp49
 70
     1
102
RTVSPost2010Prop50
 90
       50
102
RTVSPost2010PropOp50
 70
     1
102
RTVSPost2010Prop51ColorIndex
 90
      256
102
RTVSPost2010Prop51ColorRGB
 90
-16777216
102
RTVSPost2010PropOp51
 70
     0
102
RTVSPost2010Prop52
140
1.0
102
RTVSPost2010PropOp52
 70
     0
102
RTVSPost2010Prop53
 90
        2
102
RTVSPost2010PropOp53
 70
     1
102
RTVSPost2010Prop54
  1
strokes_ogs.tif
102
RTVSPost2010PropOp54
 70
     1
102
RTVSPost2010Prop55
280
     0
102
RTVSPost2010PropOp55
 70
     1
102
RTVSPost2010Prop56
140
1.0
102
RTVSPost2010PropOp56
 70
     1
102
RTVSPost2010Prop57
140
1.0
102
RTVSPost2010PropOp57
 70
     1
102
RTVSPropertyOp0
 70
     1
102
RTVSPropertyOp1
 70
     1
102
RTVSPropertyOp2
 70
     1
102
RTVSPropertyOp3
 70
     1
102
RTVSPropertyOp4
 70
     1
102
RTVSPropertyOp5
 70
     1
102
RTVSPropertyOp6
 70
     1
102
RTVSPropertyOp7
 70
     1
102
RTVSPropertyOp8
 70
     1
102
RTVSPropertyOp9
 70
     1
102
RTVSPropertyOp10
 70
     1
102
RTVSPropertyOp11
 70
     1
102
RTVSPropertyOp12
 70
     1
102
RTVSPropertyOp13
 70
     1
102
RTVSPropertyOp14
 70
     1
102
RTVSPropertyOp15
 70
     1
102
RTVSPropertyOp16
 70
     1
102
RTVSPropertyOp17
 70
     1
102
RTVSPropertyOp18
 70
     1
102
RTVSPropertyOp19
 70
     1
102
RTVSPropertyOp20
 70
     1
102
RTVSPropertyOp21
 70
     1
102
RTVSPropertyOp22
 70
     1
102
RTVSPropertyOp23
 70
     1
102
RTVSPropertyOp24
 70
     1
102
RTVSPropertyOp25
 70
     1
102
RTVSPropertyOp26
 70
     1
102
RTVSPropertyOp27
 70
     1
102
RTVSPropertyOp28
 70
     1
102
RTVSPropertyOp29
 70
     1
102
RTVSPropertyOp30
 70
     1
102
RTVSPropertyOp31
 70
     1
102
RTVSPropertyOp32
 70
     1
102
RTVSPropertyOp33
 70
     1
102
RTVSPropertyOp34
 70
     1
102
RTVSPropertyOp35
 70
     1
102
RTVSPropertyOp36
 70
     1
102
RTVSPropertyOp37
 70
     1
102
RTVSPropertyOp38
 70
     1
102
RTVSPropertyOp39
 70
     1
102
RTVSPropertyOp40
 70
     1
102
RTVSPropertyOp41
 70
     1
102
RTVSPropertyOp42
 70
     1
102
RTVSPropertyOp43
 70
     1
102
RTVSPropertyOp44
 70
     1
102
RTVSPropertyOp45
 70
     1
102
RTVSPropertyOp46
 70
     1
102
RTVSPropertyOp47
 70
     1
102
RTVSPropertyOp48
 70
     1
102
RTVSPropertyOp49
 70
     1
102
RTVSPropertyOp50
 70
     1
102
RTVSPropertyOp51
 70
     0
102
RTVSPropertyOp52
 70
     0
102
RTVSPropertyOp53
 70
     1
102
RTVSPropertyOp54
 70
     1
102
RTVSPropertyOp55
 70
     1
102
RTVSPropertyOp56
 70
     1
102
RTVSPropertyOp57
 70
     1
102
RTVSPropertyOp58
 70
     1
102
RTVSPropertyOp59
 70
     1
102
RTVSPropertyOp60
 70
     1
102
RTVSPropertyOp61
 70
     1
102
RTVSPropertyOp62
 70
     1
  0
XRECORD
  5
186C
102
{ACAD_REACTORS
330
186B
102
}
330
186B
100
AcDbXrecord
280
     1
102
RTVSPost2010Prop28
280
     0
102
RTVSPost2010PropOp28
 70
     1
102
RTVSPost2010Prop29
280
     1
102
RTVSPost2010PropOp29
 70
     1
102
RTVSPost2010Prop30
280
     1
102
RTVSPost2010PropOp30
 70
     1
102
RTVSPost2010Prop31
280
     0
102
RTVSPost2010PropOp31
 70
     1
102
RTVSPost2010Prop32
280
     0
102
RTVSPost2010PropOp32
 70
     1
102
RTVSPost2010Prop33
280
     0
102
RTVSPost2010PropOp33
 70
     1
102
RTVSPost2010Prop34
280
     0
102
RTVSPost2010PropOp34
 70
     1
102
RTVSPost2010Prop35
280
     0
102
RTVSPost2010PropOp35
 70
     1
102
RTVSPost2010Prop36
280
     0
102
RTVSPost2010PropOp36
 70
     1
102
RTVSPost2010Prop37
 90
       50
102
RTVSPost2010PropOp37
 70
     1
102
RTVSPost2010Prop38
140
0.0
102
RTVSPost2010PropOp38
 70
     1
102
RTVSPost2010Prop39
140
1.0
102
RTVSPost2010PropOp39
 70
     1
102
RTVSPost2010Prop40
 90
        0
102
RTVSPost2010PropOp40
 70
     1
102
RTVSPost2010Prop41ColorIndex
 90
       18
102
RTVSPost2010Prop41ColorRGB
 90
        0
102
RTVSPost2010PropOp41
 70
     1
102
RTVSPost2010Prop42
 90
       50
102
RTVSPost2010PropOp42
 70
     1
102
RTVSPost2010Prop43
 90
        3
102
RTVSPost2010PropOp43
 70
     1
102
RTVSPost2010Prop44ColorIndex
 90
        5
102
RTVSPost2010Prop44ColorRGB
 90
      255
102
RTVSPost2010PropOp44
 70
     1
102
RTVSPost2010Prop45
280
     0
102
RTVSPost2010PropOp45
 70
     1
102
RTVSPost2010Prop46
 90
       50
102
RTVSPost2010PropOp46
 70
     1
102
RTVSPost2010Prop47
 90
       50
102
RTVSPost2010PropOp47
 70
     1
102
RTVSPost2010Prop48
 90
       50
102
RTVSPost2010PropOp48
 70
     1
102
RTVSPost2010Prop49
280
     0
102
RTVSPost2010PropOp49
 70
     1
102
RTVSPost2010Prop50
 90
       50
102
RTVSPost2010PropOp50
 70
     1
102
RTVSPost2010Prop51ColorIndex
 90
      256
102
RTVSPost2010Prop51ColorRGB
 90
-16777216
102
RTVSPost2010PropOp51
 70
     0
102
RTVSPost2010Prop52
140
1.0
102
RTVSPost2010PropOp52
 70
     0
102
RTVSPost2010Prop53
 90
        2
102
RTVSPost2010PropOp53
 70
     1
102
RTVSPost2010Prop54
  1
strokes_ogs.tif
102
RTVSPost2010PropOp54
 70
     1
102
RTVSPost2010Prop55
280
     0
102
RTVSPost2010PropOp55
 70
     1
102
RTVSPost2010Prop56
140
1.0
102
RTVSPost2010PropOp56
 70
     1
102
RTVSPost2010Prop57
140
1.0
102
RTVSPost2010PropOp57
 70
     1
102
RTVSPropertyOp0
 70
     1
102
RTVSPropertyOp1
 70
     1
102
RTVSPropertyOp2
 70
     1
102
RTVSPropertyOp3
 70
     1
102
RTVSPropertyOp4
 70
     1
102
RTVSPropertyOp5
 70
     1
102
RTVSPropertyOp6
 70
     1
102
RTVSPropertyOp7
 70
     1
102
RTVSPropertyOp8
 70
     1
102
RTVSPropertyOp9
 70
     1
102
RTVSPropertyOp10
 70
     1
102
RTVSPropertyOp11
 70
     1
102
RTVSPropertyOp12
 70
     1
102
RTVSPropertyOp13
 70
     1
102
RTVSPropertyOp14
 70
     1
102
RTVSPropertyOp15
 70
     1
102
RTVSPropertyOp16
 70
     1
102
RTVSPropertyOp17
 70
     1
102
RTVSPropertyOp18
 70
     1
102
RTVSPropertyOp19
 70
     1
102
RTVSPropertyOp20
 70
     1
102
RTVSPropertyOp21
 70
     1
102
RTVSPropertyOp22
 70
     1
102
RTVSPropertyOp23
 70
     1
102
RTVSPropertyOp24
 70
     1
102
RTVSPropertyOp25
 70
     1
102
RTVSPropertyOp26
 70
     1
102
RTVSPropertyOp27
 70
     1
102
RTVSPropertyOp28
 70
     1
102
RTVSPropertyOp29
 70
     1
102
RTVSPropertyOp30
 70
     1
102
RTVSPropertyOp31
 70
     1
102
RTVSPropertyOp32
 70
     1
102
RTVSPropertyOp33
 70
     1
102
RTVSPropertyOp34
 70
     1
102
RTVSPropertyOp35
 70
     1
102
RTVSPropertyOp36
 70
     1
102
RTVSPropertyOp37
 70
     1
102
RTVSPropertyOp38
 70
     1
102
RTVSPropertyOp39
 70
     1
102
RTVSPropertyOp40
 70
     1
102
RTVSPropertyOp41
 70
     1
102
RTVSPropertyOp42
 70
     1
102
RTVSPropertyOp43
 70
     1
102
RTVSPropertyOp44
 70
     1
102
RTVSPropertyOp45
 70
     1
102
RTVSPropertyOp46
 70
     1
102
RTVSPropertyOp47
 70
     1
102
RTVSPropertyOp48
 70
     1
102
RTVSPropertyOp49
 70
     1
102
RTVSPropertyOp50
 70
     1
102
RTVSPropertyOp51
 70
     0
102
RTVSPropertyOp52
 70
     0
102
RTVSPropertyOp53
 70
     1
102
RTVSPropertyOp54
 70
     1
102
RTVSPropertyOp55
 70
     1
102
RTVSPropertyOp56
 70
     1
102
RTVSPropertyOp57
 70
     1
102
RTVSPropertyOp58
 70
     1
102
RTVSPropertyOp59
 70
     1
102
RTVSPropertyOp60
 70
     1
102
RTVSPropertyOp61
 70
     1
102
RTVSPropertyOp62
 70
     1
  0
XRECORD
  5
186E
102
{ACAD_REACTORS
330
186D
102
}
330
186D
100
AcDbXrecord
280
     1
102
RTVSPost2010Prop28
280
     0
102
RTVSPost2010PropOp28
 70
     1
102
RTVSPost2010Prop29
280
     1
102
RTVSPost2010PropOp29
 70
     1
102
RTVSPost2010Prop30
280
     1
102
RTVSPost2010PropOp30
 70
     1
102
RTVSPost2010Prop31
280
     0
102
RTVSPost2010PropOp31
 70
     1
102
RTVSPost2010Prop32
280
     0
102
RTVSPost2010PropOp32
 70
     1
102
RTVSPost2010Prop33
280
     0
102
RTVSPost2010PropOp33
 70
     1
102
RTVSPost2010Prop34
280
     0
102
RTVSPost2010PropOp34
 70
     1
102
RTVSPost2010Prop35
280
     0
102
RTVSPost2010PropOp35
 70
     1
102
RTVSPost2010Prop36
280
     0
102
RTVSPost2010PropOp36
 70
     1
102
RTVSPost2010Prop37
 90
       50
102
RTVSPost2010PropOp37
 70
     1
102
RTVSPost2010Prop38
140
0.0
102
RTVSPost2010PropOp38
 70
     1
102
RTVSPost2010Prop39
140
1.0
102
RTVSPost2010PropOp39
 70
     1
102
RTVSPost2010Prop40
 90
        0
102
RTVSPost2010PropOp40
 70
     1
102
RTVSPost2010Prop41ColorIndex
 90
       18
102
RTVSPost2010Prop41ColorRGB
 90
        0
102
RTVSPost2010PropOp41
 70
     1
102
RTVSPost2010Prop42
 90
       50
102
RTVSPost2010PropOp42
 70
     1
102
RTVSPost2010Prop43
 90
        3
102
RTVSPost2010PropOp43
 70
     1
102
RTVSPost2010Prop44ColorIndex
 90
        5
102
RTVSPost2010Prop44ColorRGB
 90
      255
102
RTVSPost2010PropOp44
 70
     1
102
RTVSPost2010Prop45
280
     0
102
RTVSPost2010PropOp45
 70
     1
102
RTVSPost2010Prop46
 90
       50
102
RTVSPost2010PropOp46
 70
     1
102
RTVSPost2010Prop47
 90
       50
102
RTVSPost2010PropOp47
 70
     1
102
RTVSPost2010Prop48
 90
       50
102
RTVSPost2010PropOp48
 70
     1
102
RTVSPost2010Prop49
280
     0
102
RTVSPost2010PropOp49
 70
     1
102
RTVSPost2010Prop50
 90
       50
102
RTVSPost2010PropOp50
 70
     1
102
RTVSPost2010Prop51ColorIndex
 90
      256
102
RTVSPost2010Prop51ColorRGB
 90
-16777216
102
RTVSPost2010PropOp51
 70
     0
102
RTVSPost2010Prop52
140
1.0
102
RTVSPost2010PropOp52
 70
     0
102
RTVSPost2010Prop53
 90
        2
102
RTVSPost2010PropOp53
 70
     1
102
RTVSPost2010Prop54
  1
strokes_ogs.tif
102
RTVSPost2010PropOp54
 70
     1
102
RTVSPost2010Prop55
280
     0
102
RTVSPost2010PropOp55
 70
     1
102
RTVSPost2010Prop56
140
1.0
102
RTVSPost2010PropOp56
 70
     1
102
RTVSPost2010Prop57
140
1.0
102
RTVSPost2010PropOp57
 70
     1
102
RTVSPropertyOp0
 70
     1
102
RTVSPropertyOp1
 70
     1
102
RTVSPropertyOp2
 70
     1
102
RTVSPropertyOp3
 70
     1
102
RTVSPropertyOp4
 70
     1
102
RTVSPropertyOp5
 70
     1
102
RTVSPropertyOp6
 70
     1
102
RTVSPropertyOp7
 70
     1
102
RTVSPropertyOp8
 70
     1
102
RTVSPropertyOp9
 70
     1
102
RTVSPropertyOp10
 70
     1
102
RTVSPropertyOp11
 70
     1
102
RTVSPropertyOp12
 70
     1
102
RTVSPropertyOp13
 70
     1
102
RTVSPropertyOp14
 70
     1
102
RTVSPropertyOp15
 70
     1
102
RTVSPropertyOp16
 70
     1
102
RTVSPropertyOp17
 70
     1
102
RTVSPropertyOp18
 70
     1
102
RTVSPropertyOp19
 70
     1
102
RTVSPropertyOp20
 70
     1
102
RTVSPropertyOp21
 70
     1
102
RTVSPropertyOp22
 70
     1
102
RTVSPropertyOp23
 70
     1
102
RTVSPropertyOp24
 70
     1
102
RTVSPropertyOp25
 70
     1
102
RTVSPropertyOp26
 70
     1
102
RTVSPropertyOp27
 70
     1
102
RTVSPropertyOp28
 70
     1
102
RTVSPropertyOp29
 70
     1
102
RTVSPropertyOp30
 70
     1
102
RTVSPropertyOp31
 70
     1
102
RTVSPropertyOp32
 70
     1
102
RTVSPropertyOp33
 70
     1
102
RTVSPropertyOp34
 70
     1
102
RTVSPropertyOp35
 70
     1
102
RTVSPropertyOp36
 70
     1
102
RTVSPropertyOp37
 70
     1
102
RTVSPropertyOp38
 70
     1
102
RTVSPropertyOp39
 70
     1
102
RTVSPropertyOp40
 70
     1
102
RTVSPropertyOp41
 70
     1
102
RTVSPropertyOp42
 70
     1
102
RTVSPropertyOp43
 70
     1
102
RTVSPropertyOp44
 70
     1
102
RTVSPropertyOp45
 70
     1
102
RTVSPropertyOp46
 70
     1
102
RTVSPropertyOp47
 70
     1
102
RTVSPropertyOp48
 70
     1
102
RTVSPropertyOp49
 70
     1
102
RTVSPropertyOp50
 70
     1
102
RTVSPropertyOp51
 70
     0
102
RTVSPropertyOp52
 70
     0
102
RTVSPropertyOp53
 70
     1
102
RTVSPropertyOp54
 70
     1
102
RTVSPropertyOp55
 70
     1
102
RTVSPropertyOp56
 70
     1
102
RTVSPropertyOp57
 70
     1
102
RTVSPropertyOp58
 70
     1
102
RTVSPropertyOp59
 70
     1
102
RTVSPropertyOp60
 70
     1
102
RTVSPropertyOp61
 70
     1
102
RTVSPropertyOp62
 70
     1
  0
XRECORD
  5
1864
102
{ACAD_REACTORS
330
1863
102
}
330
1863
100
AcDbXrecord
280
     1
102
RTVSPost2010Prop28
280
     0
102
RTVSPost2010PropOp28
 70
     1
102
RTVSPost2010Prop29
280
     1
102
RTVSPost2010PropOp29
 70
     1
102
RTVSPost2010Prop30
280
     1
102
RTVSPost2010PropOp30
 70
     1
102
RTVSPost2010Prop31
280
     0
102
RTVSPost2010PropOp31
 70
     1
102
RTVSPost2010Prop32
280
     0
102
RTVSPost2010PropOp32
 70
     1
102
RTVSPost2010Prop33
280
     0
102
RTVSPost2010PropOp33
 70
     1
102
RTVSPost2010Prop34
280
     0
102
RTVSPost2010PropOp34
 70
     1
102
RTVSPost2010Prop35
280
     0
102
RTVSPost2010PropOp35
 70
     1
102
RTVSPost2010Prop36
280
     0
102
RTVSPost2010PropOp36
 70
     1
102
RTVSPost2010Prop37
 90
       50
102
RTVSPost2010PropOp37
 70
     1
102
RTVSPost2010Prop38
140
0.0
102
RTVSPost2010PropOp38
 70
     1
102
RTVSPost2010Prop39
140
1.0
102
RTVSPost2010PropOp39
 70
     1
102
RTVSPost2010Prop40
 90
        0
102
RTVSPost2010PropOp40
 70
     1
102
RTVSPost2010Prop41ColorIndex
 90
       18
102
RTVSPost2010Prop41ColorRGB
 90
        0
102
RTVSPost2010PropOp41
 70
     1
102
RTVSPost2010Prop42
 90
       50
102
RTVSPost2010PropOp42
 70
     1
102
RTVSPost2010Prop43
 90
        3
102
RTVSPost2010PropOp43
 70
     1
102
RTVSPost2010Prop44ColorIndex
 90
        5
102
RTVSPost2010Prop44ColorRGB
 90
      255
102
RTVSPost2010PropOp44
 70
     1
102
RTVSPost2010Prop45
280
     0
102
RTVSPost2010PropOp45
 70
     1
102
RTVSPost2010Prop46
 90
       50
102
RTVSPost2010PropOp46
 70
     1
102
RTVSPost2010Prop47
 90
       50
102
RTVSPost2010PropOp47
 70
     1
102
RTVSPost2010Prop48
 90
       50
102
RTVSPost2010PropOp48
 70
     1
102
RTVSPost2010Prop49
280
     0
102
RTVSPost2010PropOp49
 70
     1
102
RTVSPost2010Prop50
 90
       50
102
RTVSPost2010PropOp50
 70
     1
102
RTVSPost2010Prop51ColorIndex
 90
      256
102
RTVSPost2010Prop51ColorRGB
 90
-16777216
102
RTVSPost2010PropOp51
 70
     0
102
RTVSPost2010Prop52
140
1.0
102
RTVSPost2010PropOp52
 70
     0
102
RTVSPost2010Prop53
 90
        2
102
RTVSPost2010PropOp53
 70
     1
102
RTVSPost2010Prop54
  1
strokes_ogs.tif
102
RTVSPost2010PropOp54
 70
     1
102
RTVSPost2010Prop55
280
     0
102
RTVSPost2010PropOp55
 70
     1
102
RTVSPost2010Prop56
140
1.0
102
RTVSPost2010PropOp56
 70
     1
102
RTVSPost2010Prop57
140
1.0
102
RTVSPost2010PropOp57
 70
     1
102
RTVSPropertyOp0
 70
     1
102
RTVSPropertyOp1
 70
     1
102
RTVSPropertyOp2
 70
     1
102
RTVSPropertyOp3
 70
     1
102
RTVSPropertyOp4
 70
     1
102
RTVSPropertyOp5
 70
     1
102
RTVSPropertyOp6
 70
     1
102
RTVSPropertyOp7
 70
     1
102
RTVSPropertyOp8
 70
     1
102
RTVSPropertyOp9
 70
     1
102
RTVSPropertyOp10
 70
     1
102
RTVSPropertyOp11
 70
     1
102
RTVSPropertyOp12
 70
     1
102
RTVSPropertyOp13
 70
     1
102
RTVSPropertyOp14
 70
     1
102
RTVSPropertyOp15
 70
     1
102
RTVSPropertyOp16
 70
     1
102
RTVSPropertyOp17
 70
     1
102
RTVSPropertyOp18
 70
     1
102
RTVSPropertyOp19
 70
     1
102
RTVSPropertyOp20
 70
     1
102
RTVSPropertyOp21
 70
     1
102
RTVSPropertyOp22
 70
     1
102
RTVSPropertyOp23
 70
     1
102
RTVSPropertyOp24
 70
     1
102
RTVSPropertyOp25
 70
     1
102
RTVSPropertyOp26
 70
     1
102
RTVSPropertyOp27
 70
     1
102
RTVSPropertyOp28
 70
     1
102
RTVSPropertyOp29
 70
     1
102
RTVSPropertyOp30
 70
     1
102
RTVSPropertyOp31
 70
     1
102
RTVSPropertyOp32
 70
     1
102
RTVSPropertyOp33
 70
     1
102
RTVSPropertyOp34
 70
     1
102
RTVSPropertyOp35
 70
     1
102
RTVSPropertyOp36
 70
     1
102
RTVSPropertyOp37
 70
     1
102
RTVSPropertyOp38
 70
     1
102
RTVSPropertyOp39
 70
     1
102
RTVSPropertyOp40
 70
     1
102
RTVSPropertyOp41
 70
     1
102
RTVSPropertyOp42
 70
     1
102
RTVSPropertyOp43
 70
     1
102
RTVSPropertyOp44
 70
     1
102
RTVSPropertyOp45
 70
     1
102
RTVSPropertyOp46
 70
     1
102
RTVSPropertyOp47
 70
     1
102
RTVSPropertyOp48
 70
     1
102
RTVSPropertyOp49
 70
     1
102
RTVSPropertyOp50
 70
     1
102
RTVSPropertyOp51
 70
     0
102
RTVSPropertyOp52
 70
     0
102
RTVSPropertyOp53
 70
     1
102
RTVSPropertyOp54
 70
     1
102
RTVSPropertyOp55
 70
     1
102
RTVSPropertyOp56
 70
     1
102
RTVSPropertyOp57
 70
     1
102
RTVSPropertyOp58
 70
     1
102
RTVSPropertyOp59
 70
     1
102
RTVSPropertyOp60
 70
     1
102
RTVSPropertyOp61
 70
     1
102
RTVSPropertyOp62
 70
     1
  0
XRECORD
  5
1858
102
{ACAD_REACTORS
330
1857
102
}
330
1857
100
AcDbXrecord
280
     1
102
RTVSPost2010Prop28
280
     0
102
RTVSPost2010PropOp28
 70
     1
102
RTVSPost2010Prop29
280
     1
102
RTVSPost2010PropOp29
 70
     1
102
RTVSPost2010Prop30
280
     1
102
RTVSPost2010PropOp30
 70
     1
102
RTVSPost2010Prop31
280
     0
102
RTVSPost2010PropOp31
 70
     1
102
RTVSPost2010Prop32
280
     0
102
RTVSPost2010PropOp32
 70
     1
102
RTVSPost2010Prop33
280
     0
102
RTVSPost2010PropOp33
 70
     1
102
RTVSPost2010Prop34
280
     0
102
RTVSPost2010PropOp34
 70
     1
102
RTVSPost2010Prop35
280
     0
102
RTVSPost2010PropOp35
 70
     1
102
RTVSPost2010Prop36
280
     0
102
RTVSPost2010PropOp36
 70
     1
102
RTVSPost2010Prop37
 90
       50
102
RTVSPost2010PropOp37
 70
     1
102
RTVSPost2010Prop38
140
0.0
102
RTVSPost2010PropOp38
 70
     1
102
RTVSPost2010Prop39
140
1.0
102
RTVSPost2010PropOp39
 70
     1
102
RTVSPost2010Prop40
 90
        0
102
RTVSPost2010PropOp40
 70
     1
102
RTVSPost2010Prop41ColorIndex
 90
       18
102
RTVSPost2010Prop41ColorRGB
 90
        0
102
RTVSPost2010PropOp41
 70
     1
102
RTVSPost2010Prop42
 90
       50
102
RTVSPost2010PropOp42
 70
     1
102
RTVSPost2010Prop43
 90
        3
102
RTVSPost2010PropOp43
 70
     1
102
RTVSPost2010Prop44ColorIndex
 90
        5
102
RTVSPost2010Prop44ColorRGB
 90
      255
102
RTVSPost2010PropOp44
 70
     1
102
RTVSPost2010Prop45
280
     0
102
RTVSPost2010PropOp45
 70
     1
102
RTVSPost2010Prop46
 90
       50
102
RTVSPost2010PropOp46
 70
     1
102
RTVSPost2010Prop47
 90
       50
102
RTVSPost2010PropOp47
 70
     1
102
RTVSPost2010Prop48
 90
       50
102
RTVSPost2010PropOp48
 70
     1
102
RTVSPost2010Prop49
280
     0
102
RTVSPost2010PropOp49
 70
     1
102
RTVSPost2010Prop50
 90
       50
102
RTVSPost2010PropOp50
 70
     1
102
RTVSPost2010Prop51ColorIndex
 90
      256
102
RTVSPost2010Prop51ColorRGB
 90
-16777216
102
RTVSPost2010PropOp51
 70
     0
102
RTVSPost2010Prop52
140
1.0
102
RTVSPost2010PropOp52
 70
     0
102
RTVSPost2010Prop53
 90
        2
102
RTVSPost2010PropOp53
 70
     1
102
RTVSPost2010Prop54
  1
strokes_ogs.tif
102
RTVSPost2010PropOp54
 70
     1
102
RTVSPost2010Prop55
280
     0
102
RTVSPost2010PropOp55
 70
     1
102
RTVSPost2010Prop56
140
1.0
102
RTVSPost2010PropOp56
 70
     1
102
RTVSPost2010Prop57
140
1.0
102
RTVSPost2010PropOp57
 70
     1
102
RTVSPropertyOp0
 70
     1
102
RTVSPropertyOp1
 70
     1
102
RTVSPropertyOp2
 70
     1
102
RTVSPropertyOp3
 70
     1
102
RTVSPropertyOp4
 70
     1
102
RTVSPropertyOp5
 70
     1
102
RTVSPropertyOp6
 70
     1
102
RTVSPropertyOp7
 70
     1
102
RTVSPropertyOp8
 70
     1
102
RTVSPropertyOp9
 70
     1
102
RTVSPropertyOp10
 70
     1
102
RTVSPropertyOp11
 70
     1
102
RTVSPropertyOp12
 70
     1
102
RTVSPropertyOp13
 70
     1
102
RTVSPropertyOp14
 70
     1
102
RTVSPropertyOp15
 70
     1
102
RTVSPropertyOp16
 70
     1
102
RTVSPropertyOp17
 70
     1
102
RTVSPropertyOp18
 70
     1
102
RTVSPropertyOp19
 70
     1
102
RTVSPropertyOp20
 70
     1
102
RTVSPropertyOp21
 70
     1
102
RTVSPropertyOp22
 70
     1
102
RTVSPropertyOp23
 70
     1
102
RTVSPropertyOp24
 70
     1
102
RTVSPropertyOp25
 70
     1
102
RTVSPropertyOp26
 70
     1
102
RTVSPropertyOp27
 70
     1
102
RTVSPropertyOp28
 70
     1
102
RTVSPropertyOp29
 70
     1
102
RTVSPropertyOp30
 70
     1
102
RTVSPropertyOp31
 70
     1
102
RTVSPropertyOp32
 70
     1
102
RTVSPropertyOp33
 70
     1
102
RTVSPropertyOp34
 70
     1
102
RTVSPropertyOp35
 70
     1
102
RTVSPropertyOp36
 70
     1
102
RTVSPropertyOp37
 70
     1
102
RTVSPropertyOp38
 70
     1
102
RTVSPropertyOp39
 70
     1
102
RTVSPropertyOp40
 70
     1
102
RTVSPropertyOp41
 70
     1
102
RTVSPropertyOp42
 70
     1
102
RTVSPropertyOp43
 70
     1
102
RTVSPropertyOp44
 70
     1
102
RTVSPropertyOp45
 70
     1
102
RTVSPropertyOp46
 70
     1
102
RTVSPropertyOp47
 70
     1
102
RTVSPropertyOp48
 70
     1
102
RTVSPropertyOp49
 70
     1
102
RTVSPropertyOp50
 70
     1
102
RTVSPropertyOp51
 70
     0
102
RTVSPropertyOp52
 70
     0
102
RTVSPropertyOp53
 70
     1
102
RTVSPropertyOp54
 70
     1
102
RTVSPropertyOp55
 70
     1
102
RTVSPropertyOp56
 70
     1
102
RTVSPropertyOp57
 70
     1
102
RTVSPropertyOp58
 70
     1
102
RTVSPropertyOp59
 70
     1
102
RTVSPropertyOp60
 70
     1
102
RTVSPropertyOp61
 70
     1
102
RTVSPropertyOp62
 70
     1
  0
XRECORD
  5
1870
102
{ACAD_REACTORS
330
186F
102
}
330
186F
100
AcDbXrecord
280
     1
102
RTVSPost2010Prop28
280
     0
102
RTVSPost2010PropOp28
 70
     1
102
RTVSPost2010Prop29
280
     1
102
RTVSPost2010PropOp29
 70
     1
102
RTVSPost2010Prop30
280
     1
102
RTVSPost2010PropOp30
 70
     1
102
RTVSPost2010Prop31
280
     0
102
RTVSPost2010PropOp31
 70
     1
102
RTVSPost2010Prop32
280
     0
102
RTVSPost2010PropOp32
 70
     1
102
RTVSPost2010Prop33
280
     0
102
RTVSPost2010PropOp33
 70
     1
102
RTVSPost2010Prop34
280
     0
102
RTVSPost2010PropOp34
 70
     1
102
RTVSPost2010Prop35
280
     0
102
RTVSPost2010PropOp35
 70
     1
102
RTVSPost2010Prop36
280
     0
102
RTVSPost2010PropOp36
 70
     1
102
RTVSPost2010Prop37
 90
       50
102
RTVSPost2010PropOp37
 70
     1
102
RTVSPost2010Prop38
140
0.0
102
RTVSPost2010PropOp38
 70
     1
102
RTVSPost2010Prop39
140
1.0
102
RTVSPost2010PropOp39
 70
     1
102
RTVSPost2010Prop40
 90
        0
102
RTVSPost2010PropOp40
 70
     1
102
RTVSPost2010Prop41ColorIndex
 90
       18
102
RTVSPost2010Prop41ColorRGB
 90
        0
102
RTVSPost2010PropOp41
 70
     1
102
RTVSPost2010Prop42
 90
       50
102
RTVSPost2010PropOp42
 70
     1
102
RTVSPost2010Prop43
 90
        3
102
RTVSPost2010PropOp43
 70
     1
102
RTVSPost2010Prop44ColorIndex
 90
        5
102
RTVSPost2010Prop44ColorRGB
 90
      255
102
RTVSPost2010PropOp44
 70
     1
102
RTVSPost2010Prop45
280
     0
102
RTVSPost2010PropOp45
 70
     1
102
RTVSPost2010Prop46
 90
       50
102
RTVSPost2010PropOp46
 70
     1
102
RTVSPost2010Prop47
 90
       50
102
RTVSPost2010PropOp47
 70
     1
102
RTVSPost2010Prop48
 90
       50
102
RTVSPost2010PropOp48
 70
     1
102
RTVSPost2010Prop49
280
     0
102
RTVSPost2010PropOp49
 70
     1
102
RTVSPost2010Prop50
 90
       50
102
RTVSPost2010PropOp50
 70
     1
102
RTVSPost2010Prop51ColorIndex
 90
      256
102
RTVSPost2010Prop51ColorRGB
 90
-16777216
102
RTVSPost2010PropOp51
 70
     0
102
RTVSPost2010Prop52
140
1.0
102
RTVSPost2010PropOp52
 70
     0
102
RTVSPost2010Prop53
 90
        2
102
RTVSPost2010PropOp53
 70
     1
102
RTVSPost2010Prop54
  1
strokes_ogs.tif
102
RTVSPost2010PropOp54
 70
     1
102
RTVSPost2010Prop55
280
     0
102
RTVSPost2010PropOp55
 70
     1
102
RTVSPost2010Prop56
140
1.0
102
RTVSPost2010PropOp56
 70
     1
102
RTVSPost2010Prop57
140
1.0
102
RTVSPost2010PropOp57
 70
     1
102
RTVSPropertyOp0
 70
     1
102
RTVSPropertyOp1
 70
     1
102
RTVSPropertyOp2
 70
     1
102
RTVSPropertyOp3
 70
     1
102
RTVSPropertyOp4
 70
     1
102
RTVSPropertyOp5
 70
     1
102
RTVSPropertyOp6
 70
     1
102
RTVSPropertyOp7
 70
     1
102
RTVSPropertyOp8
 70
     1
102
RTVSPropertyOp9
 70
     1
102
RTVSPropertyOp10
 70
     1
102
RTVSPropertyOp11
 70
     1
102
RTVSPropertyOp12
 70
     1
102
RTVSPropertyOp13
 70
     1
102
RTVSPropertyOp14
 70
     1
102
RTVSPropertyOp15
 70
     1
102
RTVSPropertyOp16
 70
     1
102
RTVSPropertyOp17
 70
     1
102
RTVSPropertyOp18
 70
     1
102
RTVSPropertyOp19
 70
     1
102
RTVSPropertyOp20
 70
     1
102
RTVSPropertyOp21
 70
     1
102
RTVSPropertyOp22
 70
     1
102
RTVSPropertyOp23
 70
     1
102
RTVSPropertyOp24
 70
     1
102
RTVSPropertyOp25
 70
     1
102
RTVSPropertyOp26
 70
     1
102
RTVSPropertyOp27
 70
     1
102
RTVSPropertyOp28
 70
     1
102
RTVSPropertyOp29
 70
     1
102
RTVSPropertyOp30
 70
     1
102
RTVSPropertyOp31
 70
     1
102
RTVSPropertyOp32
 70
     1
102
RTVSPropertyOp33
 70
     1
102
RTVSPropertyOp34
 70
     1
102
RTVSPropertyOp35
 70
     1
102
RTVSPropertyOp36
 70
     1
102
RTVSPropertyOp37
 70
     1
102
RTVSPropertyOp38
 70
     1
102
RTVSPropertyOp39
 70
     1
102
RTVSPropertyOp40
 70
     1
102
RTVSPropertyOp41
 70
     1
102
RTVSPropertyOp42
 70
     1
102
RTVSPropertyOp43
 70
     1
102
RTVSPropertyOp44
 70
     1
102
RTVSPropertyOp45
 70
     1
102
RTVSPropertyOp46
 70
     1
102
RTVSPropertyOp47
 70
     1
102
RTVSPropertyOp48
 70
     1
102
RTVSPropertyOp49
 70
     1
102
RTVSPropertyOp50
 70
     1
102
RTVSPropertyOp51
 70
     0
102
RTVSPropertyOp52
 70
     0
102
RTVSPropertyOp53
 70
     1
102
RTVSPropertyOp54
 70
     1
102
RTVSPropertyOp55
 70
     1
102
RTVSPropertyOp56
 70
     1
102
RTVSPropertyOp57
 70
     1
102
RTVSPropertyOp58
 70
     1
102
RTVSPropertyOp59
 70
     1
102
RTVSPropertyOp60
 70
     1
102
RTVSPropertyOp61
 70
     1
102
RTVSPropertyOp62
 70
     1
  0
XRECORD
  5
170C
102
{ACAD_REACTORS
330
170B
102
}
330
170B
100
AcDbXrecord
280
     1
330
13ED
  0
ACDBASSOCARRAYACTIONBODY
  5
1756
330
1755
100
AcDbAssocActionBody
 90
        1
100
AcDbAssocParamBasedActionBody
 90
        0
 90
        0
 90
        3
360
1757
360
1758
360
175C
 90
        0
 90
        9
 90
        0
  1
AlignItems
 90
        0
 90
        1
 90
        0
330
0
330
0
 90
        0
  1
AxesAngle
 90
        2
 90
        1
 40
1.570796326794896
330
0
330
0
 90
        0
  1
ItemSpacing
 90
        1
 90
        1
 40
30.0
330
0
330
0
 90
        0
  1
Items
 90
        0
 90
        1
 90
       16
330
0
330
0
 90
        0
  1
LevelSpacing
 90
        1
 90
        1
 40
1.0
330
0
330
0
 90
        0
  1
Levels
 90
        0
 90
        1
 90
        1
330
0
330
0
 90
        0
  1
RowElevation
 90
        1
 90
        1
 40
0.0
330
0
330
0
 90
        0
  1
RowSpacing
 90
        1
 90
        1
 40
48.0
330
0
330
0
 90
        0
  1
Rows
 90
        0
 90
        1
 90
        1
330
0
330
0
100
AcDbAssocArrayActionBody
 90
        1
  1
AcDbAssocArrayRectangularParameters
 90
        0
 90
       16
  1
AcDbAssocArrayItem
100
AcDbAssocArrayItem
 90
        0
 90
        0
 90
        0
 90
        0
 90
        8
 11
0.0
 21
0.0
 31
0.0
330
175E
100
AcDbAssocArrayItem
 90
        0
 90
        1
 90
        0
 90
        0
 90
        8
 11
30.0
 21
0.0
 31
0.0
330
175F
100
AcDbAssocArrayItem
 90
        0
 90
        2
 90
        0
 90
        0
 90
        8
 11
60.0
 21
0.0
 31
0.0
330
1760
100
AcDbAssocArrayItem
 90
        0
 90
        3
 90
        0
 90
        0
 90
        8
 11
90.0
 21
0.0
 31
0.0
330
1761
100
AcDbAssocArrayItem
 90
        0
 90
        4
 90
        0
 90
        0
 90
        8
 11
120.0
 21
0.0
 31
0.0
330
1762
100
AcDbAssocArrayItem
 90
        0
 90
        5
 90
        0
 90
        0
 90
        8
 11
150.0
 21
0.0
 31
0.0
330
1763
100
AcDbAssocArrayItem
 90
        0
 90
        6
 90
        0
 90
        0
 90
        8
 11
180.0
 21
0.0
 31
0.0
330
1764
100
AcDbAssocArrayItem
 90
        0
 90
        7
 90
        0
 90
        0
 90
        8
 11
210.0
 21
0.0
 31
0.0
330
1765
100
AcDbAssocArrayItem
 90
        0
 90
        8
 90
        0
 90
        0
 90
        8
 11
240.0
 21
0.0
 31
0.0
330
1766
100
AcDbAssocArrayItem
 90
        0
 90
        9
 90
        0
 90
        0
 90
        8
 11
270.0
 21
0.0
 31
0.0
330
1767
100
AcDbAssocArrayItem
 90
        0
 90
       10
 90
        0
 90
        0
 90
        8
 11
300.0
 21
0.0
 31
0.0
330
1768
100
AcDbAssocArrayItem
 90
        0
 90
       11
 90
        0
 90
        0
 90
        8
 11
330.0
 21
0.0
 31
0.0
330
1769
100
AcDbAssocArrayItem
 90
        0
 90
       12
 90
        0
 90
        0
 90
        8
 11
360.0
 21
0.0
 31
0.0
330
176A
100
AcDbAssocArrayItem
 90
        0
 90
       13
 90
        0
 90
        0
 90
        8
 11
390.0
 21
0.0
 31
0.0
330
176B
100
AcDbAssocArrayItem
 90
        0
 90
       14
 90
        0
 90
        0
 90
        8
 11
420.0
 21
0.0
 31
0.0
330
176C
100
AcDbAssocArrayItem
 90
        0
 90
       15
 90
        0
 90
        0
 90
        8
 11
450.0
 21
0.0
 31
0.0
330
176D
 40
1.0
 40
0.0
 40
0.0
 40
620.8732745944662
 40
0.0
 40
1.0
 40
0.0
 40
508.5298130748241
 40
0.0
 40
0.0
 40
1.0
 40
0.0
 40
0.0
 40
0.0
 40
0.0
 40
1.0
  0
ACDBASSOCDEPENDENCY
  5
1759
330
1755
100
AcDbAssocDependency
 90
        2
 90
        1
290
     0
290
     1
290
     1
290
     1
 90
        0
330
1724
290
     0
330
0
330
0
360
0
 90
        1
  0
ACDBASSOCDEPENDENCY
  5
175A
330
1755
100
AcDbAssocDependency
 90
        2
 90
        1
290
     1
290
     0
290
     1
290
     1
 90
        0
330
1721
290
     0
330
0
330
0
360
0
 90
        2
  0
ACDBASSOCDEPENDENCY
  5
175B
330
1755
100
AcDbAssocDependency
 90
        2
 90
        0
290
     1
290
     1
290
     1
290
     1
 90
-2147483648
330
1727
290
     0
330
0
330
0
360
0
 90
        3
  0
ACDBASSOCARRAYACTIONBODY
  5
17D7
330
17D6
100
AcDbAssocActionBody
 90
        1
100
AcDbAssocParamBasedActionBody
 90
        0
 90
        0
 90
        3
360
17D8
360
17D9
360
17DD
 90
        0
 90
        9
 90
        0
  1
AlignItems
 90
        0
 90
        1
 90
        0
330
0
330
0
 90
        0
  1
AxesAngle
 90
        2
 90
        1
 40
1.570796326794896
330
0
330
0
 90
        0
  1
ItemSpacing
 90
        1
 90
        1
 40
30.0
330
0
330
0
 90
        0
  1
Items
 90
        0
 90
        1
 90
       16
330
0
330
0
 90
        0
  1
LevelSpacing
 90
        1
 90
        1
 40
1.0
330
0
330
0
 90
        0
  1
Levels
 90
        0
 90
        1
 90
        1
330
0
330
0
 90
        0
  1
RowElevation
 90
        1
 90
        1
 40
0.0
330
0
330
0
 90
        0
  1
RowSpacing
 90
        1
 90
        1
 40
781.5
330
0
330
0
 90
        0
  1
Rows
 90
        0
 90
        1
 90
        1
330
0
330
0
100
AcDbAssocArrayActionBody
 90
        1
  1
AcDbAssocArrayRectangularParameters
 90
        0
 90
       16
  1
AcDbAssocArrayItem
100
AcDbAssocArrayItem
 90
        0
 90
        0
 90
        0
 90
        0
 90
        8
 11
0.0
 21
0.0
 31
0.0
330
17DF
100
AcDbAssocArrayItem
 90
        0
 90
        1
 90
        0
 90
        0
 90
        8
 11
30.0
 21
0.0
 31
0.0
330
17E0
100
AcDbAssocArrayItem
 90
        0
 90
        2
 90
        0
 90
        0
 90
        8
 11
60.0
 21
0.0
 31
0.0
330
17E1
100
AcDbAssocArrayItem
 90
        0
 90
        3
 90
        0
 90
        0
 90
        8
 11
90.0
 21
0.0
 31
0.0
330
17E2
100
AcDbAssocArrayItem
 90
        0
 90
        4
 90
        0
 90
        0
 90
        8
 11
120.0
 21
0.0
 31
0.0
330
17E3
100
AcDbAssocArrayItem
 90
        0
 90
        5
 90
        0
 90
        0
 90
        8
 11
150.0
 21
0.0
 31
0.0
330
17E4
100
AcDbAssocArrayItem
 90
        0
 90
        6
 90
        0
 90
        0
 90
        8
 11
180.0
 21
0.0
 31
0.0
330
17E5
100
AcDbAssocArrayItem
 90
        0
 90
        7
 90
        0
 90
        0
 90
        8
 11
210.0
 21
0.0
 31
0.0
330
17E6
100
AcDbAssocArrayItem
 90
        0
 90
        8
 90
        0
 90
        0
 90
        8
 11
240.0
 21
0.0
 31
0.0
330
17E7
100
AcDbAssocArrayItem
 90
        0
 90
        9
 90
        0
 90
        0
 90
        8
 11
270.0
 21
0.0
 31
0.0
330
17E8
100
AcDbAssocArrayItem
 90
        0
 90
       10
 90
        0
 90
        0
 90
        8
 11
300.0
 21
0.0
 31
0.0
330
17E9
100
AcDbAssocArrayItem
 90
        0
 90
       11
 90
        0
 90
        0
 90
        8
 11
330.0
 21
0.0
 31
0.0
330
17EA
100
AcDbAssocArrayItem
 90
        0
 90
       12
 90
        0
 90
        0
 90
        8
 11
360.0
 21
0.0
 31
0.0
330
17EB
100
AcDbAssocArrayItem
 90
        0
 90
       13
 90
        0
 90
        0
 90
        8
 11
390.0
 21
0.0
 31
0.0
330
17EC
100
AcDbAssocArrayItem
 90
        0
 90
       14
 90
        0
 90
        0
 90
        8
 11
420.0
 21
0.0
 31
0.0
330
17ED
100
AcDbAssocArrayItem
 90
        0
 90
       15
 90
        0
 90
        0
 90
        8
 11
450.0
 21
0.0
 31
0.0
330
17EE
 40
1.0
 40
0.0
 40
0.0
 40
618.8732745944662
 40
0.0
 40
1.0
 40
0.0
 40
1366.733416887393
 40
0.0
 40
0.0
 40
1.0
 40
0.0
 40
0.0
 40
0.0
 40
0.0
 40
1.0
  0
ACDBASSOCDEPENDENCY
  5
17DA
330
17D6
100
AcDbAssocDependency
 90
        2
 90
        1
290
     0
290
     1
290
     1
290
     1
 90
        0
330
1772
290
     0
330
0
330
0
360
0
 90
        1
  0
ACDBASSOCDEPENDENCY
  5
17DB
330
17D6
100
AcDbAssocDependency
 90
        2
 90
        1
290
     1
290
     0
290
     1
290
     1
 90
        0
330
176F
290
     0
330
0
330
0
360
0
 90
        2
  0
ACDBASSOCDEPENDENCY
  5
17DC
330
17D6
100
AcDbAssocDependency
 90
        2
 90
        0
290
     1
290
     1
290
     1
290
     1
 90
-2147483648
330
1775
290
     0
330
0
330
0
360
0
 90
        3
  0
ACDBASSOCVERTEXACTIONPARAM
  5
1757
330
1756
100
AcDbAssocActionParam
 90
        0
  1
BaseNormal
100
AcDbAssocSingleDependencyActionParam
 90
        0
330
0
100
AcDbAssocVertexActionParam
 90
        0
 10
0.0
 20
0.0
 30
1.0
  0
ACDBASSOCVERTEXACTIONPARAM
  5
1758
330
1756
100
AcDbAssocActionParam
 90
        0
  1
Origin
100
AcDbAssocSingleDependencyActionParam
 90
        0
330
0
100
AcDbAssocVertexActionParam
 90
        0
 10
0.0
 20
0.0
 30
0.0
  0
ACDBASSOCVERTEXACTIONPARAM
  5
175C
330
1756
100
AcDbAssocActionParam
 90
        0
  1
basePoint
100
AcDbAssocSingleDependencyActionParam
 90
        0
330
0
100
AcDbAssocVertexActionParam
 90
        0
 10
0.0
 20
0.0
 30
0.0
  0
ACDBASSOCVERTEXACTIONPARAM
  5
17D8
330
17D7
100
AcDbAssocActionParam
 90
        0
  1
BaseNormal
100
AcDbAssocSingleDependencyActionParam
 90
        0
330
0
100
AcDbAssocVertexActionParam
 90
        0
 10
0.0
 20
0.0
 30
1.0
  0
ACDBASSOCVERTEXACTIONPARAM
  5
17D9
330
17D7
100
AcDbAssocActionParam
 90
        0
  1
Origin
100
AcDbAssocSingleDependencyActionParam
 90
        0
330
0
100
AcDbAssocVertexActionParam
 90
        0
 10
0.0
 20
0.0
 30
0.0
  0
ACDBASSOCVERTEXACTIONPARAM
  5
17DD
330
17D7
100
AcDbAssocActionParam
 90
        0
  1
basePoint
100
AcDbAssocSingleDependencyActionParam
 90
        0
330
0
100
AcDbAssocVertexActionParam
 90
        0
 10
0.0
 20
0.0
 30
0.0
  0
ENDSEC
  0
EOF
